<?xml version="1.0" standalone="no"?>
<!DOCTYPE svg PUBLIC "-//W3C//DTD SVG 1.1//EN" "http://www.w3.org/Graphics/SVG/1.1/DTD/svg11.dtd" >
<svg xmlns="http://www.w3.org/2000/svg" xmlns:xlink="http://www.w3.org/1999/xlink" version="1.1">
<metadata>
Created by FontForge 20170731 at Fri Jan 31 20:02:44 2020
 By Aleksey,,,
Circle Symbols
</metadata>
<defs>
<font id="SFProText-Regular" horiz-adv-x="0" >
  <font-face 
    font-family="SF Pro Text"
    font-weight="400"
    font-stretch="normal"
    units-per-em="2048"
    panose-1="0 0 0 0 0 0 0 0 0 0"
    ascent="1638"
    descent="-410"
    x-height="1075"
    cap-height="1443"
    bbox="-873 -615 2699 2205"
    underline-thickness="120"
    underline-position="-490"
    unicode-range="U+0020-1F16B"
  />
<missing-glyph horiz-adv-x="2048" 
d="M100 1666v284h1848v-284h-1848zM100 1234v284h1848v-284h-1848zM100 802v284h1848v-284h-1848zM100 370v284h1848v-284h-1848zM100 -62v284h1848v-284h-1848zM100 -494v284h1848v-284h-1848z" />
    <glyph glyph-name=".notdef" horiz-adv-x="2048" 
d="M100 1666v284h1848v-284h-1848zM100 1234v284h1848v-284h-1848zM100 802v284h1848v-284h-1848zM100 370v284h1848v-284h-1848zM100 -62v284h1848v-284h-1848zM100 -494v284h1848v-284h-1848z" />
    <glyph glyph-name="glyph1" 
 />
    <glyph glyph-name="nonmarkingreturn" horiz-adv-x="682" 
 />
    <glyph glyph-name="space" unicode=" " horiz-adv-x="578" 
 />
    <glyph glyph-name="exclam" unicode="!" horiz-adv-x="637" 
d="M218 1444h200l-17 -964h-166zM319 -18q-61 0 -100 39t-39 100q0 62 39 101t100 39t99.5 -39t38.5 -101q0 -61 -38.5 -100t-99.5 -39z" />
    <glyph glyph-name="quotedbl" unicode="&#x22;" horiz-adv-x="895" 
d="M339 904h-160v539h160v-539zM716 904h-160v539h160v-539z" />
    <glyph glyph-name="numbersign" unicode="#" horiz-adv-x="1296" 
d="M663 0l82 403h-328l-82 -403h-142l81 403h-234l28 144h237l73 364h-247l29 143h247l81 389h142l-78 -389h326l81 389h143l-80 -389h249l-28 -143h-251l-75 -364h261l-28 -144h-262l-82 -403h-143zM445 544h330l75 369h-330z" />
    <glyph glyph-name="dollar" unicode="$" horiz-adv-x="1328" 
d="M606 -145v174q-119 10 -218 59.5t-159.5 134t-64.5 201.5h174q13 -94 75.5 -159.5t192.5 -79.5v477l-23 6q-187 45 -285 132.5t-98 235.5q0 108 52 189t143.5 129.5t210.5 59.5v174h120v-173q116 -11 209 -61t149 -133.5t60 -193.5h-174q-10 101 -76.5 159.5t-167.5 71.5
v-455l31 -7q193 -46 297 -133t104 -245q0 -121 -59 -204.5t-157 -130t-216 -55.5v-173h-120zM374 1048q0 -73 51.5 -128.5t180.5 -87.5v425q-114 -15 -173 -75.5t-59 -133.5zM732 632l-6 1v-449q139 11 198.5 72t59.5 148q0 83 -51.5 137.5t-200.5 90.5z" />
    <glyph glyph-name="percent" unicode="%" horiz-adv-x="1720" 
d="M378 790q-147 0 -230.5 90.5t-83.5 249.5q0 158 84.5 248.5t229.5 90.5q146 0 229.5 -90.5t83.5 -248.5q0 -160 -83.5 -250t-229.5 -90zM443 0h-163l997 1443h163zM378 921q76 0 117 55t41 153t-41.5 153t-116.5 55q-76 0 -117.5 -55t-41.5 -153q0 -99 41.5 -153.5
t117.5 -54.5zM1343 -14q-146 0 -230 90.5t-84 249.5q0 158 84.5 248.5t229.5 90.5q146 0 229.5 -90.5t83.5 -248.5q0 -160 -83.5 -250t-229.5 -90zM1343 117q76 0 117 55t41 153t-41 153t-117 55t-117 -55t-41 -153q0 -99 41 -153.5t117 -54.5z" />
    <glyph glyph-name="ampersand" unicode="&#x26;" horiz-adv-x="1457" 
d="M1203 0l-133 144q-92 -81 -214 -126t-253 -45q-143 0 -253.5 52.5t-172.5 145.5t-62 214q0 252 286 403l27 13.5l29 14.5q-100 105 -140.5 182t-40.5 156q0 93 48 166t131.5 115t188.5 42q107 0 190 -42t130.5 -115t47.5 -168q0 -111 -72.5 -198t-239.5 -175l361 -388
q34 68 51 160.5t17 227.5v25h168v-26q0 -168 -30 -292.5t-89 -216.5l251 -269h-226zM603 881q132 68 186 128t54 137q0 84 -55 136t-143 52q-86 0 -141.5 -53t-55.5 -137q0 -60 35 -119t120 -144zM505 682q-210 -109 -210 -285q0 -121 89.5 -196.5t234.5 -75.5
q98 0 192 36.5t153 98.5l-408 446q-8 -3 -24 -11t-27 -13z" />
    <glyph glyph-name="quotesingle" unicode="'" horiz-adv-x="518" 
d="M339 904h-160v539h160v-539z" />
    <glyph glyph-name="parenleft" unicode="(" horiz-adv-x="782" 
d="M242 600q0 270 70 493t214 413h146q-53 -68 -99 -170t-80.5 -224.5t-54 -253.5t-19.5 -258q0 -170 33.5 -344.5t91 -323t128.5 -239.5h-146q-144 191 -214 413.5t-70 493.5z" />
    <glyph glyph-name="parenright" unicode=")" horiz-adv-x="782" 
d="M540 599q0 -270 -70 -492.5t-214 -413.5h-146q53 68 99 170t80.5 224.5t54 253.5t19.5 258q0 170 -33.5 344.5t-90.5 323t-129 239.5h146q144 -190 214 -413t70 -494z" />
    <glyph glyph-name="asterisk" unicode="*" horiz-adv-x="940" 
d="M756 825l-234 158l16 -279h-136l16 280l-234 -159l-67 116l250 131l-250 132l67 118l234 -163l-16 284h136l-16 -284l234 163l67 -118l-249 -132l249 -131z" />
    <glyph glyph-name="plus" unicode="+" horiz-adv-x="1328" 
d="M745 488v-422h-162v422h-402v162h402v422h162v-422h402v-162h-402z" />
    <glyph glyph-name="comma" unicode="," horiz-adv-x="608" 
d="M271 -367h-129l95 569h191z" />
    <glyph glyph-name="uni2011" unicode="&#x2011;" horiz-adv-x="966" 
d="M811 499h-656v163h656v-163z" />
    <glyph glyph-name="uni2011" unicode="-" horiz-adv-x="966" 
d="M811 499h-656v163h656v-163z" />
    <glyph glyph-name="period" unicode="." horiz-adv-x="608" 
d="M304 -10q-53 0 -91.5 38.5t-38.5 91.5q0 54 38.5 92t91.5 38q54 0 92 -38t38 -92q0 -53 -38 -91.5t-92 -38.5z" />
    <glyph glyph-name="slash" unicode="/" horiz-adv-x="682" 
d="M154 -307h-146l520 1813h146z" />
    <glyph glyph-name="zero" unicode="0" horiz-adv-x="1290" 
d="M646 -34q-244 0 -378 198t-134 558q0 357 135 556t377 199q241 0 375.5 -199.5t134.5 -558.5t-133.5 -556t-376.5 -197zM646 123q160 0 244.5 154.5t84.5 444.5q0 287 -85.5 442t-243.5 155t-244.5 -155.5t-86.5 -441.5q0 -289 85.5 -444t245.5 -155z" />
    <glyph glyph-name="one" unicode="1" horiz-adv-x="955" 
d="M506 0v1243h-16l-367 -266v190l384 276h179v-1443h-180z" />
    <glyph glyph-name="two" unicode="2" horiz-adv-x="1237" 
d="M152 1036q0 129 61 228.5t168 156t245 56.5q126 0 227 -52.5t159.5 -144t58.5 -208.5q0 -83 -29 -159t-101 -169t-202 -227l-328 -339v-16h684v-162h-934v124l488 528q92 100 144 165.5t73 119t21 116.5q0 115 -72.5 191t-200.5 76q-130 0 -209 -78t-79 -206h-174z" />
    <glyph glyph-name="three" unicode="3" horiz-adv-x="1284" 
d="M464 665v154h171q125 0 204.5 72t79.5 184q0 101 -73 173t-204 72t-211 -64.5t-91 -186.5h-175q9 118 69.5 210t167 145t252.5 53q143 0 243 -53.5t153 -140.5t52 -188q-1 -131 -73.5 -215.5t-183.5 -116.5v-16q140 -22 225.5 -114.5t85.5 -243.5q0 -121 -67 -216.5
t-182 -151t-259 -55.5q-146 0 -258.5 50.5t-178 142t-71.5 213.5h174q12 -114 102.5 -181.5t229.5 -67.5q143 0 234 75t91 196q0 125 -88 198t-240 73h-179z" />
    <glyph glyph-name="four" unicode="4" horiz-adv-x="1318" 
d="M820 0v299h-703v164q146 245 306.5 499.5t311.5 480.5h261v-983h205v-161h-205v-299h-176zM301 471v-12h520v817h-12q-121 -181 -255.5 -393.5t-252.5 -411.5z" />
    <glyph glyph-name="five" unicode="5" horiz-adv-x="1267" 
d="M641 -34q-136 0 -243 52.5t-170.5 146t-71.5 216.5h177q12 -115 97.5 -186t212.5 -71q142 0 228 93.5t86 244.5q0 146 -85 236t-222 90q-103 0 -181 -45t-121 -125h-169l83 825h801v-161h-660l-45 -470h16q105 131 321 131q121 0 221.5 -59.5t160.5 -166.5t60 -250
q0 -148 -62.5 -261t-174 -176.5t-259.5 -63.5z" />
    <glyph glyph-name="six" unicode="6" horiz-adv-x="1305" 
d="M671 -33q-157 0 -279.5 81t-193 243.5t-70.5 405.5q0 248 67.5 422.5t192.5 266t295 91.5q197 0 321 -100.5t152 -268.5h-185q-22 101 -97 155t-185 54q-180 0 -280.5 -149t-105.5 -443h16q53 105 154 163.5t230 58.5q138 0 245 -62.5t168 -171.5t61 -249
q0 -145 -65 -257t-179 -176t-262 -64zM669 125q93 0 166.5 44t116.5 119.5t43 169.5q0 148 -90.5 240.5t-233.5 92.5q-95 0 -169.5 -42t-116.5 -115.5t-42 -169.5t43 -173t117 -121.5t166 -44.5z" />
    <glyph glyph-name="seven" unicode="7" horiz-adv-x="1167" 
d="M221 0l648 1268v14h-772v161h955v-167l-642 -1276h-189z" />
    <glyph glyph-name="eight" unicode="8" horiz-adv-x="1308" 
d="M654 -34q-153 0 -270 53.5t-183.5 148.5t-66.5 218q0 141 82 242t218 126v16q-110 30 -175.5 117t-65.5 205q0 113 59 199.5t163 136t239 49.5t239 -49.5t163 -136t59 -199.5q0 -118 -64.5 -204.5t-176.5 -117.5v-16q136 -25 218 -126t82 -242q0 -123 -66 -218
t-183.5 -148.5t-270.5 -53.5zM654 830q128 0 206 67.5t78 177.5q0 112 -78 180t-206 68t-206 -68t-78 -180q0 -110 78.5 -177.5t205.5 -67.5zM654 120q150 0 244 77.5t94 201.5t-94 201.5t-244 77.5t-244 -77.5t-94 -201.5t94 -201.5t244 -77.5z" />
    <glyph glyph-name="nine" unicode="9" horiz-adv-x="1305" 
d="M622 -33q-184 0 -311.5 99.5t-161.5 269.5h185q28 -98 106 -153.5t184 -55.5q176 0 273.5 152t104.5 440h-16q-53 -105 -154 -163.5t-230 -58.5q-137 0 -244.5 62.5t-168.5 171.5t-61 249q0 145 65 257t179 176t262 64q155 0 278 -80t194 -242t71 -408q0 -372 -145 -576
t-410 -204zM634 653q96 0 170 42t116 116t42 169q0 97 -43 173.5t-116.5 121t-166.5 44.5q-92 0 -166 -44t-117 -119t-43 -170q0 -148 90.5 -240.5t233.5 -92.5z" />
    <glyph glyph-name="colon" unicode=":" horiz-adv-x="608" 
d="M304 764q-53 0 -91.5 38.5t-38.5 91.5q0 54 38.5 92t91.5 38q54 0 92 -38t38 -92q0 -53 -38 -91.5t-92 -38.5zM304 -10q-53 0 -91.5 38.5t-38.5 91.5q0 54 38.5 92t91.5 38q54 0 92 -38t38 -92q0 -53 -38 -91.5t-92 -38.5z" />
    <glyph glyph-name="semicolon" unicode=";" horiz-adv-x="608" 
d="M304 764q-53 0 -91.5 38.5t-38.5 91.5q0 54 38.5 92t91.5 38q54 0 92 -38t38 -92q0 -53 -38 -91.5t-92 -38.5zM271 -367h-129l95 569h191z" />
    <glyph glyph-name="less" unicode="&#x3c;" horiz-adv-x="1328" 
d="M1147 901l-759 -322v-9l759 -333v-181l-966 436v152l966 438v-181z" />
    <glyph glyph-name="equal" unicode="=" horiz-adv-x="1328" 
d="M1127 709h-926v154h926v-154zM1127 276h-926v154h926v-154z" />
    <glyph glyph-name="greater" unicode="&#x3e;" horiz-adv-x="1328" 
d="M181 237l759 322v9l-759 333v181l966 -436v-152l-966 -438v181z" />
    <glyph glyph-name="question" unicode="?" horiz-adv-x="1050" 
d="M80 1066q6 108 55.5 196t145 140t235.5 52q126 0 221.5 -47.5t149 -129.5t53.5 -185q0 -118 -56.5 -202.5t-152.5 -142.5q-95 -56 -129 -106.5t-34 -129.5v-65h-175v92q-1 99 48 171t152 133q87 53 124 107t37 134q0 93 -66.5 154t-178.5 61q-113 0 -181.5 -62.5
t-76.5 -169.5h-171zM494 -18q-61 0 -100 39t-39 100q0 62 39 101t100 39t99.5 -39t38.5 -101q0 -61 -38.5 -100t-99.5 -39z" />
    <glyph glyph-name="at" unicode="@" horiz-adv-x="1880" 
d="M969 1435q237 0 417.5 -93.5t282.5 -259.5t102 -383q0 -244 -101.5 -388.5t-274.5 -144.5q-88 0 -149.5 47.5t-70.5 120.5h-16q-67 -159 -250 -159q-104 0 -182.5 53.5t-122 149t-43.5 222.5q0 122 44.5 215t123 145.5t180.5 52.5q79 0 142 -38t92 -103h16v122h151v-587
q0 -111 113 -111q95 0 151 110.5t56 294.5q0 181 -85 317.5t-237 213.5t-352 77q-195 0 -347 -92t-238.5 -253t-86.5 -369q0 -213 87 -371t245 -244.5t372 -86.5q103 0 195.5 13t139.5 35v-126q-142 -49 -337 -49q-258 0 -447 102.5t-292.5 290t-103.5 442.5
q0 248 104.5 435.5t290.5 293t431 105.5zM934 875q-100 0 -156.5 -74t-56.5 -205q0 -130 56.5 -205t154.5 -75q103 0 164 76t61 204t-60.5 203.5t-162.5 75.5z" />
    <glyph glyph-name="A" unicode="A" horiz-adv-x="1380" 
d="M1122 0l-145 413h-574l-145 -413h-189l532 1443h178l532 -1443h-189zM682 1210l-226 -644h468l-226 644h-16z" />
    <glyph glyph-name="B" unicode="B" horiz-adv-x="1346" 
d="M747 0h-563v1443h552q199 0 313 -97t114 -263q0 -75 -33.5 -141.5t-89.5 -111.5t-126 -58v-16q148 -19 235 -113.5t87 -237.5q0 -190 -129.5 -297.5t-359.5 -107.5zM364 1284v-463h288q329 0 329 231q0 110 -74.5 171t-208.5 61h-334zM364 159h356q331 0 331 255
q0 252 -348 252h-339v-507z" />
    <glyph glyph-name="C" unicode="C" horiz-adv-x="1466" 
d="M765 -34q-196 0 -339 92t-220.5 261.5t-77.5 401.5q0 233 77.5 402.5t220 261.5t338.5 92q152 0 276.5 -59.5t205.5 -165t102 -244.5h-183q-36 140 -144 221.5t-257 81.5q-138 0 -239.5 -72t-156.5 -204.5t-55 -313.5t55 -313t156.5 -204t240.5 -72q151 0 258.5 72.5
t141.5 197.5h183q-24 -132 -104 -230t-202.5 -152t-276.5 -54z" />
    <glyph glyph-name="D" unicode="D" horiz-adv-x="1488" 
d="M184 1443h495q214 0 366.5 -85.5t233.5 -247t81 -388.5q0 -341 -179.5 -531.5t-501.5 -190.5h-495v1443zM364 1281v-1119h303q242 0 375.5 147t133.5 411q0 265 -134.5 413t-374.5 148h-303z" />
    <glyph glyph-name="E" unicode="E" horiz-adv-x="1220" 
d="M1078 162v-162h-894v1443h894v-162h-714v-463h677v-160h-677v-496h714z" />
    <glyph glyph-name="F" unicode="F" horiz-adv-x="1172" 
d="M364 0h-180v1443h876v-162h-696v-496h639v-160h-639v-625z" />
    <glyph glyph-name="G" unicode="G" horiz-adv-x="1529" 
d="M1395 558q0 -178 -76.5 -311t-214 -207t-322.5 -74q-199 0 -346 92.5t-227.5 262.5t-80.5 401q0 228 81 398t228.5 263.5t344.5 93.5q160 0 287 -56.5t209 -160.5t108 -247h-183q-95 298 -421 298q-143 0 -248.5 -72.5t-163 -204.5t-57.5 -312q0 -182 57 -314.5
t162.5 -204t250.5 -71.5q129 0 226.5 51.5t152 143.5t54.5 214v35h-406v158h585v-176z" />
    <glyph glyph-name="H" unicode="H" horiz-adv-x="1520" 
d="M1336 0h-180v657h-792v-657h-180v1443h180v-624h792v624h180v-1443z" />
    <glyph glyph-name="I" unicode="I" horiz-adv-x="548" 
d="M364 0h-180v1443h180v-1443z" />
    <glyph glyph-name="J" unicode="J" horiz-adv-x="1102" 
d="M86 337h179q3 -91 66.5 -148t165.5 -57q116 0 178.5 69t62.5 202v1040h180v-1041q0 -206 -112 -321t-308 -115q-121 0 -214 46.5t-145.5 130t-52.5 194.5z" />
    <glyph glyph-name="uni212A" unicode="&#x212a;" horiz-adv-x="1349" 
d="M364 0h-180v1443h180v-701h16l632 701h226l-577 -623l630 -820h-233l-521 695l-173 -191v-504z" />
    <glyph glyph-name="uni212A" unicode="K" horiz-adv-x="1349" 
d="M364 0h-180v1443h180v-701h16l632 701h226l-577 -623l630 -820h-233l-521 695l-173 -191v-504z" />
    <glyph glyph-name="L" unicode="L" horiz-adv-x="1163" 
d="M1060 162v-162h-876v1443h180v-1281h696z" />
    <glyph glyph-name="M" unicode="M" horiz-adv-x="1790" 
d="M1606 0h-168v1102h-12l-455 -1102h-152l-455 1102h-12v-1102h-168v1443h209l494 -1204h16l494 1204h209v-1443z" />
    <glyph glyph-name="N" unicode="N" horiz-adv-x="1520" 
d="M362 0h-178v1443h175l783 -1123h16v1123h178v-1443h-175l-783 1119h-16v-1119z" />
    <glyph glyph-name="O" unicode="O" horiz-adv-x="1580" 
d="M790 1477q205 0 353.5 -92.5t228.5 -261.5t80 -401q0 -230 -79.5 -400t-228 -263t-354.5 -93q-207 0 -355 92.5t-227.5 262.5t-79.5 401q0 232 80.5 401.5t229 261.5t352.5 92zM790 1311q-147 0 -254 -72t-165 -204t-58 -313q0 -179 57 -311.5t163.5 -205.5t256.5 -73
q148 0 255 73t164.5 205.5t57.5 311.5q0 181 -58 313t-164.5 204t-254.5 72z" />
    <glyph glyph-name="P" unicode="P" horiz-adv-x="1301" 
d="M184 1443h545q137 0 241 -59.5t162.5 -164.5t58.5 -243q0 -135 -59.5 -239t-164 -163t-240.5 -59h-363v-515h-180v1443zM364 1283v-608h318q154 0 239 79t85 222q0 149 -83.5 228t-240.5 79h-318z" />
    <glyph glyph-name="Q" unicode="Q" horiz-adv-x="1579" 
d="M791 -34q-205 0 -354 91.5t-229 260.5t-80 403q0 233 81 402.5t229.5 261.5t352.5 92q203 0 351 -92t228.5 -261.5t80.5 -402.5q0 -215 -66.5 -378t-189.5 -252l183 -254h-202l-127 173q-117 -44 -258 -44zM792 132q81 0 154 22l-191 259h204l131 -174q85 68 130.5 192.5
t45.5 289.5q0 181 -58 313.5t-164.5 204.5t-252.5 72q-147 0 -254 -72t-165.5 -204t-58.5 -314t58 -314t165.5 -203.5t255.5 -71.5z" />
    <glyph glyph-name="R" unicode="R" horiz-adv-x="1338" 
d="M364 571v-571h-180v1443h551q139 0 242.5 -53.5t160.5 -150t57 -226.5q0 -151 -77 -261t-213 -153l334 -599h-211l-309 571h-355zM364 1283v-552h355q139 0 214.5 71.5t75.5 204.5q0 130 -79 203t-219 73h-347z" />
    <glyph glyph-name="S" unicode="S" horiz-adv-x="1305" 
d="M115 377h182q17 -113 117 -180t254 -67q97 0 173 32t120 88.5t44 127.5q0 92 -70 153t-219 98l-185 48q-196 50 -285 142.5t-89 246.5q0 123 64 215.5t179 144t267 51.5q140 0 250.5 -51t177.5 -141t74 -207h-181q-19 111 -105.5 173.5t-221.5 62.5q-144 0 -231.5 -66
t-87.5 -176q0 -85 64.5 -138t213.5 -91l151 -40q224 -56 321.5 -150t97.5 -253q0 -132 -66 -229.5t-187 -151t-286 -53.5q-153 0 -270.5 51t-186.5 143.5t-79 216.5z" />
    <glyph glyph-name="T" unicode="T" horiz-adv-x="1298" 
d="M739 0h-180v1281h-465v162h1110v-162h-465v-1281z" />
    <glyph glyph-name="U" unicode="U" horiz-adv-x="1510" 
d="M362 1443v-935q0 -163 103 -269.5t290 -106.5q188 0 290.5 106.5t102.5 269.5v935h180v-947q0 -154 -68.5 -273.5t-197 -188t-307.5 -68.5t-307.5 68.5t-197 188t-68.5 273.5v947h180z" />
    <glyph glyph-name="V" unicode="V" horiz-adv-x="1380" 
d="M779 0h-178l-532 1443h189l424 -1210h16l424 1210h189z" />
    <glyph glyph-name="W" unicode="W" horiz-adv-x="1982" 
d="M985 1139l-332 -1139h-170l-393 1443h188l287 -1173h12l323 1173h182l323 -1173h12l287 1173h188l-393 -1443h-170l-332 1139h-12z" />
    <glyph glyph-name="X" unicode="X" horiz-adv-x="1390" 
d="M90 0l494 726l-488 717h217l380 -574h16l386 574h205l-500 -725l489 -718h-216l-378 569h-16l-385 -569h-204z" />
    <glyph glyph-name="Y" unicode="Y" horiz-adv-x="1344" 
d="M762 0h-180v621l-512 822h205l389 -641h16l389 641h205l-512 -822v-621z" />
    <glyph glyph-name="Z" unicode="Z" horiz-adv-x="1355" 
d="M144 0v128l817 1137v16h-789v162h1022v-128l-813 -1137v-16h830v-162h-1067z" />
    <glyph glyph-name="bracketleft" unicode="[" horiz-adv-x="782" 
d="M268 1506h434v-136h-266v-1541h266v-136h-434v1813z" />
    <glyph glyph-name="backslash" unicode="\" horiz-adv-x="682" 
d="M530 -307l-530 1813h152l530 -1813h-152z" />
    <glyph glyph-name="bracketright" unicode="]" horiz-adv-x="782" 
d="M514 -307h-434v136h266v1541h-266v136h434v-1813z" />
    <glyph glyph-name="asciicircum" unicode="^" horiz-adv-x="940" 
d="M462 1243l-220 -481h-163l292 620h198l292 -620h-163l-220 481h-16z" />
    <glyph glyph-name="underscore" unicode="_" horiz-adv-x="916" 
d="M926 -235h-936v128h936v-128z" />
    <glyph glyph-name="grave" unicode="`" horiz-adv-x="1024" 
d="M552 1228l-231 340h206l177 -340h-152z" />
    <glyph glyph-name="a" unicode="a" horiz-adv-x="1130" 
d="M462 -19q-104 0 -186.5 39t-130 111.5t-47.5 170.5q0 145 102.5 226.5t290.5 92.5l311 19v98q0 206 -244 206q-97 0 -161 -35t-82 -99h-174q17 130 134 208.5t289 78.5q197 0 303.5 -95.5t106.5 -263.5v-738h-164v159h-16q-108 -178 -332 -178zM494 132q89 0 158.5 35.5
t109.5 96.5t40 138v99l-290 -19q-123 -8 -179.5 -51.5t-56.5 -124.5q0 -82 62 -128t156 -46z" />
    <glyph glyph-name="b" unicode="b" horiz-adv-x="1258" 
d="M698 -19q-112 0 -203.5 50.5t-142.5 140.5h-16v-172h-164v1506h172v-598h16q44 87 135.5 138t202.5 51q137 0 238.5 -69t157.5 -194t56 -295q0 -168 -56 -293.5t-157.5 -195t-238.5 -69.5zM658 942q-147 0 -232.5 -108t-85.5 -295t85.5 -295t232.5 -108q148 0 231 107
t83 296t-83 296t-231 107z" />
    <glyph glyph-name="c" unicode="c" horiz-adv-x="1146" 
d="M1054 748h-174q-21 80 -91.5 137t-186.5 57q-145 0 -230.5 -108t-85.5 -291q0 -187 86 -297t230 -110q109 0 181.5 49t96.5 140h174q-23 -148 -140 -246t-311 -98q-151 0 -262 69t-172 195.5t-61 297.5q0 168 60.5 292.5t171.5 193t262 68.5q131 0 227 -47t153 -126.5
t72 -175.5z" />
    <glyph glyph-name="d" unicode="d" horiz-adv-x="1258" 
d="M561 -19q-138 0 -240 69t-157.5 194.5t-55.5 294.5t56 294.5t158 194.5t239 69q113 0 202.5 -50t135.5 -139h15v598h172v-1506h-164v172h-16q-51 -90 -142 -140.5t-203 -50.5zM601 942q-147 0 -231 -107.5t-84 -295.5q0 -189 83.5 -296t231.5 -107q147 0 232 108t85 295
q0 185 -85.5 294t-231.5 109z" />
    <glyph glyph-name="e" unicode="e" horiz-adv-x="1170" 
d="M876 279h172q-37 -138 -157 -218t-297 -80q-149 0 -258.5 68t-168.5 193.5t-59 295.5t60 295.5t169 194.5t257 69q218 0 343 -145.5t125 -396.5v-66h-775v-8q7 -160 90.5 -254t220.5 -94q209 0 278 146zM592 945q-129 0 -212 -87t-93 -230h594q-3 143 -82 230t-207 87z
" />
    <glyph glyph-name="f" unicode="f" horiz-adv-x="741" 
d="M234 0v934h-179v144h179v120q0 318 313 318q63 0 116 -10v-140q-30 5 -81 5q-93 0 -134.5 -44.5t-41.5 -133.5v-115h247v-144h-247v-934h-172z" />
    <glyph glyph-name="g" unicode="g" horiz-adv-x="1248" 
d="M606 -414q-195 0 -313.5 81t-138.5 214h182q14 -66 84 -105.5t186 -39.5q145 0 226.5 67.5t81.5 186.5v212h-16q-51 -89 -139 -137.5t-199 -48.5q-139 0 -240.5 67.5t-156.5 189t-55 282.5q0 162 55.5 284t157 190t239.5 68q113 0 206.5 -51.5t139.5 -138.5h16v171h164
v-1097q0 -181 -129.5 -288t-350.5 -107zM598 168q150 0 235 105.5t85 281.5t-85.5 281.5t-234.5 105.5q-150 0 -231 -105.5t-81 -281.5t81 -281.5t231 -105.5z" />
    <glyph glyph-name="h" unicode="h" horiz-adv-x="1216" 
d="M172 0v1506h172v-598h16q41 89 124.5 139t207.5 50q171 0 271.5 -104.5t100.5 -294.5v-698h-172v656q0 286 -249 286q-145 0 -222 -83.5t-77 -220.5v-638h-172z" />
    <glyph glyph-name="i" unicode="i" horiz-adv-x="504" 
d="M166 0v1078h172v-1078h-172zM252 1286q-49 0 -84.5 35.5t-35.5 84.5q0 50 35.5 85t84.5 35q50 0 85 -35t35 -85q0 -49 -35 -84.5t-85 -35.5z" />
    <glyph glyph-name="j" unicode="j" horiz-adv-x="504" 
d="M338 1078v-1131q0 -166 -80 -241.5t-250 -75.5h-30v147h26q92 0 127 39t35 128v1134h172zM254 1286q-49 0 -84.5 35.5t-35.5 84.5q0 50 35.5 85t84.5 35q50 0 85 -35t35 -85q0 -49 -35 -84.5t-85 -35.5z" />
    <glyph glyph-name="k" unicode="k" horiz-adv-x="1112" 
d="M360 607l468 471h211l-464 -462l495 -616h-219l-404 505l-103 -96v-409h-172v1506h172v-899h16z" />
    <glyph glyph-name="l" unicode="l" horiz-adv-x="516" 
d="M172 0v1506h172v-1506h-172z" />
    <glyph glyph-name="m" unicode="m" horiz-adv-x="1782" 
d="M162 0v1078h164v-170h16q37 90 115 139.5t186 49.5q110 0 185.5 -52.5t112.5 -136.5h16q44 86 131 137.5t199 51.5q165 0 254 -91t89 -261v-745h-172v705q0 237 -227 237q-112 0 -181 -73t-69 -176v-693h-172v732q0 96 -61.5 153t-163.5 57q-70 0 -127 -37t-90 -99
t-33 -138v-668h-172z" />
    <glyph glyph-name="n" unicode="n" horiz-adv-x="1195" 
d="M162 0v1078h164v-170h16q41 89 120.5 139t203.5 50q182 0 279.5 -103.5t97.5 -295.5v-698h-172v656q0 286 -254 286q-129 0 -206 -81t-77 -223v-638h-172z" />
    <glyph glyph-name="o" unicode="o" horiz-adv-x="1210" 
d="M605 -19q-230 0 -363.5 149.5t-133.5 408.5q0 260 133.5 409t363.5 149t363.5 -149t133.5 -409q0 -259 -133.5 -408.5t-363.5 -149.5zM605 136q153 0 236 106t83 297q0 192 -83 297.5t-236 105.5t-236 -105.5t-83 -297.5q0 -191 83 -297t236 -106z" />
    <glyph glyph-name="p" unicode="p" horiz-adv-x="1248" 
d="M687 1097q138 0 239.5 -69t157.5 -194t56 -295q0 -168 -56 -293.5t-158 -195t-239 -69.5q-115 0 -204 48t-133 133h-16v-522h-172v1438h164v-180h16q52 93 143.5 146t201.5 53zM646 136q149 0 232.5 107t83.5 296t-83.5 296t-231.5 107q-146 0 -232 -108.5t-86 -294.5
q0 -185 86 -294t231 -109z" />
    <glyph glyph-name="q" unicode="q" horiz-adv-x="1248" 
d="M559 1097q110 0 203.5 -54t141.5 -145h16v180h166v-1438h-174v522h-16q-106 -181 -337 -181q-137 0 -238.5 68.5t-157 194t-55.5 295.5q0 169 56 294.5t157.5 194.5t237.5 69zM598 136q148 0 233.5 108.5t85.5 294.5q0 185 -86 294t-232 109q-147 0 -230 -107t-83 -296
q0 -190 82.5 -296.5t229.5 -106.5z" />
    <glyph glyph-name="r" unicode="r" horiz-adv-x="780" 
d="M162 0v1078h164v-160h16q24 79 108 129t191 50q49 0 86 -5v-172q-10 3 -47 6.5t-63 3.5q-123 0 -203 -74t-80 -188v-668h-172z" />
    <glyph glyph-name="s" unicode="s" horiz-adv-x="1072" 
d="M137 783q0 90 53 161t144 112t205 41q170 0 279.5 -78t126.5 -211h-170q-17 65 -78 104t-159 39q-96 0 -162 -44.5t-66 -116.5q0 -105 187 -151l166 -40q152 -37 226.5 -106.5t74.5 -185.5q0 -96 -57 -169.5t-154.5 -115t-220.5 -41.5q-180 0 -295 80t-129 214h177
q22 -68 86 -108.5t167 -40.5q109 0 179 47t70 121q0 110 -171 152l-185 45q-151 37 -222.5 106t-71.5 186z" />
    <glyph glyph-name="t" unicode="t" horiz-adv-x="744" 
d="M234 1357h172v-279h240v-144h-240v-610q0 -95 38 -138t122 -43q23 0 39.5 1t40.5 3v-145q-25 -4 -50 -7t-51 -3q-166 0 -238.5 67t-72.5 221v654h-174v144h174v279z" />
    <glyph glyph-name="u" unicode="u" horiz-adv-x="1196" 
d="M1034 1078v-1078h-164v169h-16q-40 -90 -125 -139t-209 -49q-181 0 -274.5 104t-93.5 295v698h172v-656q0 -145 57.5 -214.5t186.5 -69.5q143 0 218.5 80t75.5 222v638h172z" />
    <glyph glyph-name="v" unicode="v" horiz-adv-x="1110" 
d="M1042 1078l-399 -1078h-176l-399 1078h184l295 -888h16l295 888h184z" />
    <glyph glyph-name="w" unicode="w" horiz-adv-x="1586" 
d="M1518 1078l-302 -1078h-175l-241 834h-16l-240 -834h-174l-302 1078h174l212 -862h16l241 862h165l241 -862h16l212 862h173z" />
    <glyph glyph-name="x" unicode="x" horiz-adv-x="1074" 
d="M543 404h-16l-256 -407h-195l369 539l-373 539h205l256 -401h16l253 401h195l-366 -532l371 -546h-204z" />
    <glyph glyph-name="y" unicode="y" horiz-adv-x="1112" 
d="M254 -390q-41 0 -77 6v147q16 -3 35 -4t37 -1q74 0 119 40t79 137l20 64l-399 1079h186l296 -887h16l295 887h183l-421 -1144q-46 -125 -94.5 -195.5t-113.5 -99.5t-161 -29z" />
    <glyph glyph-name="z" unicode="z" horiz-adv-x="1104" 
d="M137 0v126l622 792v16h-621v144h826v-129l-619 -789v-16h622v-144h-830z" />
    <glyph glyph-name="braceleft" unicode="{" horiz-adv-x="782" 
d="M245 588q219 -22 219 -234v-295q0 -120 46 -172.5t152 -52.5h40v-141h-55q-177 0 -262 84.5t-85 259.5v255q0 120 -48 166.5t-172 46.5v190q124 0 172 46.5t48 166.5v254q0 175 85 259.5t262 84.5h55v-141h-40q-106 0 -152 -52.5t-46 -172.5v-294q0 -212 -219 -234v-24z
" />
    <glyph glyph-name="bar" unicode="|" horiz-adv-x="682" 
d="M414 -307h-146v1813h146v-1813z" />
    <glyph glyph-name="braceright" unicode="}" horiz-adv-x="782" 
d="M537 611q-219 22 -219 234v295q0 120 -46 172.5t-152 52.5h-40v141h55q177 0 262 -84.5t85 -259.5v-255q0 -120 48 -166.5t172 -46.5v-190q-124 0 -172 -46.5t-48 -166.5v-254q0 -175 -85 -259.5t-262 -84.5h-55v141h40q106 0 152 52.5t46 172.5v294q0 212 219 234v24z
" />
    <glyph glyph-name="asciitilde" unicode="~" horiz-adv-x="1328" 
d="M880 380q-79 0 -137.5 32.5t-145.5 110.5q-49 44 -81 60.5t-66 16.5q-125 0 -136 -179h-155q0 122 42.5 196.5t109 108.5t138.5 34q79 0 140.5 -35t140.5 -108q53 -49 85 -63t63 -14q125 0 136 179h155q0 -121 -42 -196t-108.5 -109t-138.5 -34z" />
    <glyph glyph-name="uni00A0" unicode="&#xa0;" horiz-adv-x="578" 
 />
    <glyph glyph-name="exclamdown" unicode="&#xa1;" horiz-adv-x="637" 
d="M319 841q-61 0 -100 39.5t-39 100.5t39 100t100 39t99.5 -39t38.5 -100t-38.5 -100.5t-99.5 -39.5zM218 -342l17 964h166l17 -964h-200z" />
    <glyph glyph-name="cent" unicode="&#xa2;" horiz-adv-x="1328" 
d="M631 0v178q-199 21 -318.5 164.5t-119.5 379.5q0 232 119.5 377.5t318.5 167.5v175h120v-174q121 -11 208 -64.5t137.5 -133.5t61.5 -169h-170q-17 82 -76.5 140.5t-160.5 72.5v-784q196 23 238 207h171q-19 -148 -131 -247t-278 -114v-176h-120zM370 722
q0 -171 71.5 -269t189.5 -120v778q-119 -22 -190 -122t-71 -267z" />
    <glyph glyph-name="sterling" unicode="&#xa3;" horiz-adv-x="1328" 
d="M613 508q0 -124 -62.5 -210t-146.5 -130v-14h786v-154h-1062v152q89 20 158.5 72.5t109.5 124.5t40 152q0 40 -7 78.5t-18 77.5h-283v136h236q-24 66 -43.5 132.5t-19.5 134.5q0 196 137.5 306.5t379.5 110.5q92 0 171.5 -15t128.5 -38v-160q-37 22 -120 38t-171 16
q-160 0 -251 -67.5t-91 -186.5q0 -69 19 -136.5t43 -134.5h469v-136h-425q10 -37 16 -74t6 -75z" />
    <glyph glyph-name="currency" unicode="&#xa4;" horiz-adv-x="1328" 
d="M665 265q-61 0 -116.5 17.5t-102.5 49.5l-169 -170l-106 106l170 170q-32 47 -49.5 102.5t-17.5 115.5t17.5 115.5t49.5 101.5l-170 170l106 106l169 -169q47 32 102.5 49.5t116.5 17.5q60 0 115.5 -17.5t102.5 -49.5l168 169l106 -106l-168 -169q32 -47 49.5 -102.5
t17.5 -115.5q0 -61 -18 -116.5t-50 -102.5l169 -169l-106 -106l-169 169q-47 -31 -102 -48.5t-115 -17.5zM665 392q73 0 132.5 36t95.5 96t36 132q0 73 -36 132.5t-95.5 95.5t-132.5 36q-72 0 -132 -36t-96 -95.5t-36 -132.5q0 -72 36 -132t96 -96t132 -36z" />
    <glyph glyph-name="yen" unicode="&#xa5;" horiz-adv-x="1328" 
d="M752 0h-176v299h-341v120h341v160h-341v120h282l-443 723h203l384 -658h6l384 658h203l-443 -723h282v-120h-341v-160h341v-120h-341v-299z" />
    <glyph glyph-name="brokenbar" unicode="&#xa6;" horiz-adv-x="682" 
d="M414 781h-146v725h146v-725zM414 -307h-146v725h146v-725z" />
    <glyph glyph-name="section" unicode="&#xa7;" horiz-adv-x="1224" 
d="M617 -254q-118 0 -210 39.5t-147 110.5t-62 163h176q11 -75 80.5 -121t171.5 -46q107 0 173 49.5t66 128.5q0 59 -50 100t-158 70l-141 38q-169 46 -248 118.5t-79 180.5q0 98 63 170t175 103v16q-229 89 -229 283q0 98 51.5 171.5t144.5 115t215 41.5q171 0 281 -80.5
t127 -218.5h-173q-10 70 -75 111.5t-164 41.5q-105 0 -169.5 -47.5t-64.5 -124.5q0 -60 48.5 -101t156.5 -70l141 -38q165 -44 241.5 -115.5t76.5 -175.5q0 -106 -73.5 -188.5t-190.5 -105.5v-16q264 -59 264 -267q0 -98 -53.5 -174t-147.5 -119t-217 -43zM547 433l83 -18
q97 0 162.5 58t65.5 144q0 139 -175 178l-83 18q-97 0 -165.5 -59t-68.5 -143q0 -64 47.5 -111.5t133.5 -66.5z" />
    <glyph glyph-name="dieresis" unicode="&#xa8;" horiz-adv-x="1024" 
d="M295 1286q-49 0 -84.5 35.5t-35.5 84.5q0 50 35.5 85t84.5 35q50 0 85 -35t35 -85q0 -49 -35 -84.5t-85 -35.5zM729 1286q-49 0 -84.5 35.5t-35.5 84.5q0 50 35.5 85t84.5 35q50 0 85 -35t35 -85q0 -49 -35 -84.5t-85 -35.5z" />
    <glyph glyph-name="copyright" unicode="&#xa9;" horiz-adv-x="1742" 
d="M871 -168q-168 0 -312.5 60.5t-252 168.5t-168 252.5t-60.5 312.5q0 169 60 313.5t168 252.5t252.5 168t312.5 60q169 0 313.5 -60t252 -168t167.5 -252.5t60 -313.5t-60 -313.5t-168 -252.5t-252.5 -168t-312.5 -60zM871 -28q139 0 257.5 49.5t207 138.5t138 208
t49.5 258q0 140 -49 259t-137.5 207.5t-207.5 138t-258 49.5t-257.5 -49.5t-207 -138.5t-138 -208t-49.5 -258t49.5 -258t138 -208t207.5 -138.5t257 -49.5zM1249 768h-139q-18 71 -78.5 113.5t-143.5 42.5q-116 0 -184.5 -79.5t-68.5 -216.5q0 -138 68.5 -219t184.5 -81
q88 0 146 39.5t76 111.5h139q-19 -126 -116.5 -200.5t-243.5 -74.5q-181 0 -288.5 115t-107.5 309q0 192 107 306t288 114q143 0 242.5 -77t118.5 -203z" />
    <glyph glyph-name="ordfeminine" unicode="&#xaa;" horiz-adv-x="806" 
d="M319 721q-109 0 -180 58.5t-71 156.5q0 97 72.5 152t207.5 63l204 11v62q0 116 -155 116q-132 0 -158 -79h-142q11 94 95 149t211 55q142 0 218.5 -64t76.5 -177v-491h-141v100h-12q-71 -112 -226 -112zM356 843q84 0 140 44t56 110v60l-185 -12q-151 -9 -151 -101
q0 -48 39.5 -74.5t100.5 -26.5z" />
    <glyph glyph-name="guillemotleft" unicode="&#xab;" horiz-adv-x="1395" 
d="M382 573v-16l351 -412h-204l-350 416v8l350 416h204zM865 573v-16l351 -412h-204l-350 416v8l350 416h204z" />
    <glyph glyph-name="logicalnot" unicode="&#xac;" horiz-adv-x="1328" 
d="M1122 651v-585h-162v423h-754v162h916z" />
    <glyph glyph-name="registered" unicode="&#xae;" horiz-adv-x="1260" 
d="M630 449q-145 0 -263.5 70t-188.5 188.5t-70 263.5q0 146 70 264.5t188.5 188t263.5 69.5q146 0 264.5 -69.5t188 -188t69.5 -264.5q0 -145 -69.5 -263.5t-188 -188.5t-264.5 -70zM630 553q117 0 212 56t150.5 151t55.5 211q0 117 -55.5 212t-150.5 150.5t-212 55.5
q-116 0 -211 -55.5t-151 -150.5t-56 -212q0 -116 56 -211t151 -151t211 -56zM527 733h-98v499h249q75 0 124.5 -43.5t49.5 -109.5q0 -122 -116 -150l138 -196h-120l-129 183h-98v-183zM527 1143v-143h124q92 0 92 74q0 69 -89 69h-127z" />
    <glyph glyph-name="macron" unicode="&#xaf;" horiz-adv-x="1024" 
d="M839 1472v-136h-654v136h654z" />
    <glyph glyph-name="degree" unicode="&#xb0;" horiz-adv-x="940" 
d="M470 742q-96 0 -170.5 44.5t-117 119.5t-42.5 166q0 92 42.5 166.5t117 119t170.5 44.5t170.5 -44.5t117 -119t42.5 -166.5q0 -91 -42.5 -166t-117 -119.5t-170.5 -44.5zM470 882q82 0 131 56t49 134q0 80 -49.5 135t-130.5 55q-82 0 -131 -55t-49 -135q0 -78 48.5 -134
t131.5 -56z" />
    <glyph glyph-name="plusminus" unicode="&#xb1;" horiz-adv-x="1328" 
d="M739 628v-295h-149v295h-434v149h434v295h149v-295h434v-149h-434zM1173 66h-1017v149h1017v-149z" />
    <glyph glyph-name="uni00B2" unicode="&#xb2;" horiz-adv-x="812" 
d="M95 1336q0 123 89 201t228 78q132 0 215 -70.5t83 -178.5q0 -50 -18 -94t-62 -95t-122 -122l-196 -177v-10h411v-135h-620v111l312 296q86 81 114 122.5t28 88.5q0 56 -40.5 94.5t-113.5 38.5q-75 0 -119.5 -41.5t-44.5 -106.5h-144z" />
    <glyph glyph-name="uni00B3" unicode="&#xb3;" horiz-adv-x="839" 
d="M306 1114v121h110q71 0 115.5 35.5t44.5 91.5q0 52 -41.5 87.5t-115.5 35.5t-119 -34t-51 -96h-144q7 116 92.5 188t230.5 72q143 0 220 -68.5t77 -162.5q-1 -78 -47 -128t-117 -68v-11q92 -13 145 -67.5t53 -142.5q0 -74 -44 -132t-119.5 -91t-172.5 -33q-145 0 -237 72
t-98 190h147q5 -58 56 -92.5t130 -34.5q80 0 131 36.5t51 97.5q0 62 -49 98t-135 36h-113z" />
    <glyph glyph-name="acute" unicode="&#xb4;" horiz-adv-x="1024" 
d="M473 1228h-152l177 340h206z" />
    <glyph glyph-name="uni03BC" unicode="&#x3bc;" horiz-adv-x="1258" 
d="M162 -360v1438h172v-654q0 -286 244 -286q130 0 207 81t77 221v638h172v-809q0 -74 22.5 -101t77.5 -27q25 0 49 4v-145q-19 -5 -37 -7.5t-45 -2.5q-111 0 -162 37.5t-67 130.5l-2 12h-16q-42 -94 -108.5 -141.5t-175.5 -47.5q-160 0 -220 129h-16v-470h-172z" />
    <glyph glyph-name="uni03BC" unicode="&#xb5;" horiz-adv-x="1258" 
d="M162 -360v1438h172v-654q0 -286 244 -286q130 0 207 81t77 221v638h172v-809q0 -74 22.5 -101t77.5 -27q25 0 49 4v-145q-19 -5 -37 -7.5t-45 -2.5q-111 0 -162 37.5t-67 130.5l-2 12h-16q-42 -94 -108.5 -141.5t-175.5 -47.5q-160 0 -220 129h-16v-470h-172z" />
    <glyph glyph-name="paragraph" unicode="&#xb6;" horiz-adv-x="1224" 
d="M728 -220h-160v834h-19q-128 0 -230.5 53t-162.5 145t-60 210q0 123 60.5 218t163.5 149t230 54h178v-1663zM880 -220v1663h160v-1663h-160z" />
    <glyph glyph-name="periodcentered" unicode="&#xb7;" horiz-adv-x="608" 
d="M304 409q-53 0 -91.5 38.5t-38.5 91.5q0 54 38.5 92t91.5 38q54 0 92 -38t38 -92q0 -53 -38 -91.5t-92 -38.5z" />
    <glyph glyph-name="cedilla" unicode="&#xb8;" horiz-adv-x="1024" 
d="M382 -240v90l97 172h131v-22l-78 -132q102 0 162.5 -43t60.5 -120q0 -70 -36.5 -112.5t-95.5 -62t-127 -19.5q-35 0 -71.5 5t-73.5 13v116q12 -3 44 -8t69 -5q47 0 87.5 14.5t40.5 52.5q0 36 -37.5 48.5t-111.5 12.5h-61z" />
    <glyph glyph-name="uni00B9" unicode="&#xb9;" horiz-adv-x="634" 
d="M313 733v700h-11l-225 -149v153l237 156h152v-860h-153z" />
    <glyph glyph-name="ordmasculine" unicode="&#xba;" horiz-adv-x="859" 
d="M429 719q-165 0 -259.5 99.5t-94.5 273.5t95 273.5t259 99.5t259.5 -99.5t95.5 -273.5q0 -175 -95 -274t-260 -99zM429 848q98 0 150.5 64.5t52.5 179.5q0 116 -52.5 180t-150.5 64q-97 0 -150 -64t-53 -180t53 -180t150 -64z" />
    <glyph glyph-name="guillemotright" unicode="&#xbb;" horiz-adv-x="1395" 
d="M1013 557v16l-351 412h204l350 -416v-8l-350 -416h-204zM530 557v16l-351 412h204l350 -416v-8l-350 -416h-204z" />
    <glyph glyph-name="onequarter" unicode="&#xbc;" horiz-adv-x="1874" 
d="M313 583v700h-11l-225 -149v153l237 156h152v-860h-153zM479 0h-163l997 1443h163zM1530 0v162h-441v132q89 146 184 289.5t187 276.5h217v-564h123v-134h-123v-162h-147zM1233 301v-9h300v439h-9q-70 -99 -146.5 -211t-144.5 -219z" />
    <glyph glyph-name="onehalf" unicode="&#xbd;" horiz-adv-x="1939" 
d="M313 583v700h-11l-225 -149v153l237 156h152v-860h-153zM479 0h-163l997 1443h163zM1222 603q0 123 89 201t228 78q132 0 215 -70.5t83 -178.5q0 -50 -18 -94t-62 -95t-122 -122l-196 -177v-10h411v-135h-620v111l312 296q86 81 114 122.5t28 88.5q0 56 -40.5 94.5
t-113.5 38.5q-75 0 -119.5 -41.5t-44.5 -106.5h-144z" />
    <glyph glyph-name="threequarters" unicode="&#xbe;" horiz-adv-x="2079" 
d="M306 964v121h110q71 0 115.5 35.5t44.5 91.5q0 52 -41.5 87.5t-115.5 35.5t-119 -34t-51 -96h-144q7 116 92.5 188t230.5 72q143 0 220 -68.5t77 -162.5q-1 -78 -47 -128t-117 -68v-11q92 -13 145 -67.5t53 -142.5q0 -74 -44 -132t-119.5 -91t-172.5 -33q-145 0 -237 72
t-98 190h147q5 -58 56 -92.5t130 -34.5q80 0 131 36.5t51 97.5q0 62 -49 98t-135 36h-113zM684 0h-163l997 1443h163zM1735 0v162h-441v132q89 146 184 289.5t187 276.5h217v-564h123v-134h-123v-162h-147zM1438 301v-9h300v439h-9q-70 -99 -146.5 -211t-144.5 -219z" />
    <glyph glyph-name="questiondown" unicode="&#xbf;" horiz-adv-x="1050" 
d="M557 840q-61 0 -100 39t-39 100q0 60 39 100t100 40t99.5 -40t38.5 -100q0 -61 -38.5 -100t-99.5 -39zM970 35q-5 -109 -55 -197t-145 -140t-235 -52q-126 0 -222 47.5t-149.5 130t-53.5 186.5q0 116 57 200.5t152 142.5q95 57 128.5 107t33.5 129v65h175v-92
q2 -99 -46.5 -170.5t-152.5 -133.5q-86 -53 -123.5 -106.5t-37.5 -132.5q0 -94 67 -155.5t179 -61.5q113 0 181 62.5t76 170.5h171z" />
    <glyph glyph-name="Agrave" unicode="&#xc0;" horiz-adv-x="1380" 
d="M1122 0l-145 413h-574l-145 -413h-189l532 1443h178l532 -1443h-189zM682 1210l-226 -644h468l-226 644h-16zM607 1575l-241 298h216l177 -298h-152z" />
    <glyph glyph-name="Aacute" unicode="&#xc1;" horiz-adv-x="1380" 
d="M1122 0l-145 413h-574l-145 -413h-189l532 1443h178l532 -1443h-189zM682 1210l-226 -644h468l-226 644h-16zM773 1575h-152l177 298h216z" />
    <glyph glyph-name="Acircumflex" unicode="&#xc2;" horiz-adv-x="1380" 
d="M1122 0l-145 413h-574l-145 -413h-189l532 1443h178l532 -1443h-189zM682 1210l-226 -644h468l-226 644h-16zM608 1873h164l300 -298h-202l-172 177h-16l-172 -177h-202z" />
    <glyph glyph-name="Atilde" unicode="&#xc3;" horiz-adv-x="1380" 
d="M1122 0l-145 413h-574l-145 -413h-189l532 1443h178l532 -1443h-189zM682 1210l-226 -644h468l-226 644h-16zM814 1580q-61 0 -96.5 22.5t-58.5 52.5t-45 52.5t-56 22.5q-36 0 -56 -34.5t-20 -119.5h-142q0 137 57.5 212.5t163.5 75.5q60 0 96.5 -23.5t61 -55t47.5 -55
t56 -23.5q41 0 58.5 37.5t17.5 122.5h142q0 -136 -58.5 -211.5t-167.5 -75.5z" />
    <glyph glyph-name="Adieresis" unicode="&#xc4;" horiz-adv-x="1380" 
d="M1122 0l-145 413h-574l-145 -413h-189l532 1443h178l532 -1443h-189zM682 1210l-226 -644h468l-226 644h-16zM473 1631q-49 0 -84.5 35.5t-35.5 84.5q0 50 35.5 85t84.5 35q50 0 85 -35t35 -85q0 -49 -35 -84.5t-85 -35.5zM907 1631q-49 0 -84.5 35.5t-35.5 84.5
q0 50 35.5 85t84.5 35q50 0 85 -35t35 -85q0 -49 -35 -84.5t-85 -35.5z" />
    <glyph glyph-name="uni212B" unicode="&#x212b;" horiz-adv-x="1380" 
d="M1122 0l-145 413h-574l-145 -413h-189l532 1443h178l532 -1443h-189zM682 1210l-226 -644h468l-226 644h-16zM690 1551q-82 0 -140.5 57t-58.5 140t58.5 140t140.5 57q83 0 141 -57t58 -140t-58 -140t-141 -57zM690 1643q46 0 75.5 30t29.5 75q0 46 -29.5 75.5
t-75.5 29.5t-75.5 -29.5t-29.5 -75.5q0 -45 29.5 -75t75.5 -30z" />
    <glyph glyph-name="uni212B" unicode="&#xc5;" horiz-adv-x="1380" 
d="M1122 0l-145 413h-574l-145 -413h-189l532 1443h178l532 -1443h-189zM682 1210l-226 -644h468l-226 644h-16zM690 1551q-82 0 -140.5 57t-58.5 140t58.5 140t140.5 57q83 0 141 -57t58 -140t-58 -140t-141 -57zM690 1643q46 0 75.5 30t29.5 75q0 46 -29.5 75.5
t-75.5 29.5t-75.5 -29.5t-29.5 -75.5q0 -45 29.5 -75t75.5 -30z" />
    <glyph glyph-name="AE" unicode="&#xc6;" horiz-adv-x="1966" 
d="M986 0v459h-527l-209 -459h-181l651 1443h1104v-162h-658v-473h621v-160h-621v-486h658v-162h-838zM839 1292l-310 -680h457v680h-147z" />
    <glyph glyph-name="Ccedilla" unicode="&#xc7;" horiz-adv-x="1466" 
d="M765 -34q-196 0 -339 92t-220.5 261.5t-77.5 401.5q0 233 77.5 402.5t220 261.5t338.5 92q152 0 276.5 -59.5t205.5 -165t102 -244.5h-183q-36 140 -144 221.5t-257 81.5q-138 0 -239.5 -72t-156.5 -204.5t-55 -313.5t55 -313t156.5 -204t240.5 -72q151 0 258.5 72.5
t141.5 197.5h183q-24 -132 -104 -230t-202.5 -152t-276.5 -54zM634 -240v90l97 172h131v-22l-78 -132q102 0 162.5 -43t60.5 -120q0 -70 -36.5 -112.5t-95.5 -62t-127 -19.5q-35 0 -71.5 5t-73.5 13v116q12 -3 44 -8t69 -5q47 0 87.5 14.5t40.5 52.5q0 36 -37.5 48.5
t-111.5 12.5h-61z" />
    <glyph glyph-name="Egrave" unicode="&#xc8;" horiz-adv-x="1220" 
d="M1078 162v-162h-894v1443h894v-162h-714v-463h677v-160h-677v-496h714zM548 1575l-241 298h216l177 -298h-152z" />
    <glyph glyph-name="Eacute" unicode="&#xc9;" horiz-adv-x="1220" 
d="M1078 162v-162h-894v1443h894v-162h-714v-463h677v-160h-677v-496h714zM714 1575h-152l177 298h216z" />
    <glyph glyph-name="Ecircumflex" unicode="&#xca;" horiz-adv-x="1220" 
d="M1078 162v-162h-894v1443h894v-162h-714v-463h677v-160h-677v-496h714zM549 1873h164l300 -298h-202l-172 177h-16l-172 -177h-202z" />
    <glyph glyph-name="Edieresis" unicode="&#xcb;" horiz-adv-x="1220" 
d="M1078 162v-162h-894v1443h894v-162h-714v-463h677v-160h-677v-496h714zM414 1631q-49 0 -84.5 35.5t-35.5 84.5q0 50 35.5 85t84.5 35q50 0 85 -35t35 -85q0 -49 -35 -84.5t-85 -35.5zM848 1631q-49 0 -84.5 35.5t-35.5 84.5q0 50 35.5 85t84.5 35q50 0 85 -35t35 -85
q0 -49 -35 -84.5t-85 -35.5z" />
    <glyph glyph-name="Igrave" unicode="&#xcc;" horiz-adv-x="548" 
d="M364 0h-180v1443h180v-1443zM191 1575l-241 298h216l177 -298h-152z" />
    <glyph glyph-name="Iacute" unicode="&#xcd;" horiz-adv-x="548" 
d="M364 0h-180v1443h180v-1443zM357 1575h-152l177 298h216z" />
    <glyph glyph-name="Icircumflex" unicode="&#xce;" horiz-adv-x="548" 
d="M364 0h-180v1443h180v-1443zM192 1873h164l300 -298h-202l-172 177h-16l-172 -177h-202z" />
    <glyph glyph-name="Idieresis" unicode="&#xcf;" horiz-adv-x="548" 
d="M364 0h-180v1443h180v-1443zM57 1631q-49 0 -84.5 35.5t-35.5 84.5q0 50 35.5 85t84.5 35q50 0 85 -35t35 -85q0 -49 -35 -84.5t-85 -35.5zM491 1631q-49 0 -84.5 35.5t-35.5 84.5q0 50 35.5 85t84.5 35q50 0 85 -35t35 -85q0 -49 -35 -84.5t-85 -35.5z" />
    <glyph glyph-name="Eth" unicode="&#xd0;" horiz-adv-x="1488" 
d="M26 663v162h158v618h495q214 0 366.5 -85.5t233.5 -247t81 -388.5q0 -341 -179.5 -531.5t-501.5 -190.5h-495v663h-158zM364 1281v-456h309v-162h-309v-501h303q242 0 375.5 147t133.5 411q0 265 -134.5 413t-374.5 148h-303z" />
    <glyph glyph-name="Ntilde" unicode="&#xd1;" horiz-adv-x="1520" 
d="M362 0h-178v1443h175l783 -1123h16v1123h178v-1443h-175l-783 1119h-16v-1119zM884 1580q-61 0 -96.5 22.5t-58.5 52.5t-45 52.5t-56 22.5q-36 0 -56 -34.5t-20 -119.5h-142q0 137 57.5 212.5t163.5 75.5q60 0 96.5 -23.5t61 -55t47.5 -55t56 -23.5q41 0 58.5 37.5
t17.5 122.5h142q0 -136 -58.5 -211.5t-167.5 -75.5z" />
    <glyph glyph-name="Ograve" unicode="&#xd2;" horiz-adv-x="1580" 
d="M790 1477q205 0 353.5 -92.5t228.5 -261.5t80 -401q0 -230 -79.5 -400t-228 -263t-354.5 -93q-207 0 -355 92.5t-227.5 262.5t-79.5 401q0 232 80.5 401.5t229 261.5t352.5 92zM790 1311q-147 0 -254 -72t-165 -204t-58 -313q0 -179 57 -311.5t163.5 -205.5t256.5 -73
q148 0 255 73t164.5 205.5t57.5 311.5q0 181 -58 313t-164.5 204t-254.5 72zM707 1575l-241 298h216l177 -298h-152z" />
    <glyph glyph-name="Oacute" unicode="&#xd3;" horiz-adv-x="1580" 
d="M790 1477q205 0 353.5 -92.5t228.5 -261.5t80 -401q0 -230 -79.5 -400t-228 -263t-354.5 -93q-207 0 -355 92.5t-227.5 262.5t-79.5 401q0 232 80.5 401.5t229 261.5t352.5 92zM790 1311q-147 0 -254 -72t-165 -204t-58 -313q0 -179 57 -311.5t163.5 -205.5t256.5 -73
q148 0 255 73t164.5 205.5t57.5 311.5q0 181 -58 313t-164.5 204t-254.5 72zM873 1575h-152l177 298h216z" />
    <glyph glyph-name="Ocircumflex" unicode="&#xd4;" horiz-adv-x="1580" 
d="M790 1477q205 0 353.5 -92.5t228.5 -261.5t80 -401q0 -230 -79.5 -400t-228 -263t-354.5 -93q-207 0 -355 92.5t-227.5 262.5t-79.5 401q0 232 80.5 401.5t229 261.5t352.5 92zM790 1311q-147 0 -254 -72t-165 -204t-58 -313q0 -179 57 -311.5t163.5 -205.5t256.5 -73
q148 0 255 73t164.5 205.5t57.5 311.5q0 181 -58 313t-164.5 204t-254.5 72zM708 1873h164l300 -298h-202l-172 177h-16l-172 -177h-202z" />
    <glyph glyph-name="Otilde" unicode="&#xd5;" horiz-adv-x="1580" 
d="M790 1477q205 0 353.5 -92.5t228.5 -261.5t80 -401q0 -230 -79.5 -400t-228 -263t-354.5 -93q-207 0 -355 92.5t-227.5 262.5t-79.5 401q0 232 80.5 401.5t229 261.5t352.5 92zM790 1311q-147 0 -254 -72t-165 -204t-58 -313q0 -179 57 -311.5t163.5 -205.5t256.5 -73
q148 0 255 73t164.5 205.5t57.5 311.5q0 181 -58 313t-164.5 204t-254.5 72zM914 1580q-61 0 -96.5 22.5t-58.5 52.5t-45 52.5t-56 22.5q-36 0 -56 -34.5t-20 -119.5h-142q0 137 57.5 212.5t163.5 75.5q60 0 96.5 -23.5t61 -55t47.5 -55t56 -23.5q41 0 58.5 37.5t17.5 122.5
h142q0 -136 -58.5 -211.5t-167.5 -75.5z" />
    <glyph glyph-name="Odieresis" unicode="&#xd6;" horiz-adv-x="1580" 
d="M790 1477q205 0 353.5 -92.5t228.5 -261.5t80 -401q0 -230 -79.5 -400t-228 -263t-354.5 -93q-207 0 -355 92.5t-227.5 262.5t-79.5 401q0 232 80.5 401.5t229 261.5t352.5 92zM790 1311q-147 0 -254 -72t-165 -204t-58 -313q0 -179 57 -311.5t163.5 -205.5t256.5 -73
q148 0 255 73t164.5 205.5t57.5 311.5q0 181 -58 313t-164.5 204t-254.5 72zM573 1631q-49 0 -84.5 35.5t-35.5 84.5q0 50 35.5 85t84.5 35q50 0 85 -35t35 -85q0 -49 -35 -84.5t-85 -35.5zM1007 1631q-49 0 -84.5 35.5t-35.5 84.5q0 50 35.5 85t84.5 35q50 0 85 -35t35 -85
q0 -49 -35 -84.5t-85 -35.5z" />
    <glyph glyph-name="multiply" unicode="&#xd7;" horiz-adv-x="1328" 
d="M664 464l-342 -342l-104 104l341 343l-341 343l104 104l342 -342l342 342l104 -104l-341 -343l341 -343l-104 -104z" />
    <glyph glyph-name="Oslash" unicode="&#xd8;" horiz-adv-x="1580" 
d="M790 1477q133 0 243 -40t193 -114l113 130l94 -92l-119 -137q67 -96 102.5 -222.5t35.5 -279.5q0 -230 -79.5 -400t-228 -263t-354.5 -93q-134 0 -243.5 40t-192.5 114l-113 -130l-94 92l119 137q-138 197 -138 503q0 232 80.5 401.5t229 261.5t352.5 92zM790 1320
q-150 0 -259 -73t-168 -207.5t-59 -317.5q0 -217 82 -365l728 837q-127 126 -324 126zM1276 722q0 215 -82 364l-728 -837q61 -60 142.5 -92.5t181.5 -32.5q151 0 260 74t167.5 208.5t58.5 315.5z" />
    <glyph glyph-name="Ugrave" unicode="&#xd9;" horiz-adv-x="1510" 
d="M362 1443v-935q0 -163 103 -269.5t290 -106.5q188 0 290.5 106.5t102.5 269.5v935h180v-947q0 -154 -68.5 -273.5t-197 -188t-307.5 -68.5t-307.5 68.5t-197 188t-68.5 273.5v947h180zM672 1575l-241 298h216l177 -298h-152z" />
    <glyph glyph-name="Uacute" unicode="&#xda;" horiz-adv-x="1510" 
d="M362 1443v-935q0 -163 103 -269.5t290 -106.5q188 0 290.5 106.5t102.5 269.5v935h180v-947q0 -154 -68.5 -273.5t-197 -188t-307.5 -68.5t-307.5 68.5t-197 188t-68.5 273.5v947h180zM838 1575h-152l177 298h216z" />
    <glyph glyph-name="Ucircumflex" unicode="&#xdb;" horiz-adv-x="1510" 
d="M362 1443v-935q0 -163 103 -269.5t290 -106.5q188 0 290.5 106.5t102.5 269.5v935h180v-947q0 -154 -68.5 -273.5t-197 -188t-307.5 -68.5t-307.5 68.5t-197 188t-68.5 273.5v947h180zM673 1873h164l300 -298h-202l-172 177h-16l-172 -177h-202z" />
    <glyph glyph-name="Udieresis" unicode="&#xdc;" horiz-adv-x="1510" 
d="M362 1443v-935q0 -163 103 -269.5t290 -106.5q188 0 290.5 106.5t102.5 269.5v935h180v-947q0 -154 -68.5 -273.5t-197 -188t-307.5 -68.5t-307.5 68.5t-197 188t-68.5 273.5v947h180zM538 1631q-49 0 -84.5 35.5t-35.5 84.5q0 50 35.5 85t84.5 35q50 0 85 -35t35 -85
q0 -49 -35 -84.5t-85 -35.5zM972 1631q-49 0 -84.5 35.5t-35.5 84.5q0 50 35.5 85t84.5 35q50 0 85 -35t35 -85q0 -49 -35 -84.5t-85 -35.5z" />
    <glyph glyph-name="Yacute" unicode="&#xdd;" horiz-adv-x="1344" 
d="M762 0h-180v621l-512 822h205l389 -641h16l389 641h205l-512 -822v-621zM755 1575h-152l177 298h216z" />
    <glyph glyph-name="Thorn" unicode="&#xde;" horiz-adv-x="1280" 
d="M184 1443h180v-266h373q110 0 206.5 -48.5t156 -141.5t59.5 -225t-60 -225t-157 -142.5t-207 -49.5h-371v-345h-180v1443zM364 1017v-512h322q125 0 206.5 64t81.5 193t-81.5 192t-206.5 63h-322z" />
    <glyph glyph-name="germandbls" unicode="&#xdf;" horiz-adv-x="1274" 
d="M396 0h-171v1101q0 184 116.5 289.5t302.5 105.5q122 0 215.5 -48t146.5 -132.5t53 -194.5q0 -124 -66 -214t-163 -120v-18q152 -15 244 -106.5t92 -255.5q0 -119 -56.5 -214.5t-159 -151t-239.5 -55.5q-83 0 -144 13v153q26 -6 61.5 -10t70.5 -4q143 0 219.5 76.5
t76.5 194.5q0 124 -88.5 196.5t-251.5 72.5h-61v170h51q111 0 178 67.5t67 196.5q0 97 -64.5 164.5t-178.5 67.5q-117 0 -184 -68.5t-67 -191.5v-1084z" />
    <glyph glyph-name="agrave" unicode="&#xe0;" horiz-adv-x="1130" 
d="M462 -19q-104 0 -186.5 39t-130 111.5t-47.5 170.5q0 145 102.5 226.5t290.5 92.5l311 19v98q0 206 -244 206q-97 0 -161 -35t-82 -99h-174q17 130 134 208.5t289 78.5q197 0 303.5 -95.5t106.5 -263.5v-738h-164v159h-16q-108 -178 -332 -178zM494 132q89 0 158.5 35.5
t109.5 96.5t40 138v99l-290 -19q-123 -8 -179.5 -51.5t-56.5 -124.5q0 -82 62 -128t156 -46zM486 1228l-231 340h206l177 -340h-152z" />
    <glyph glyph-name="aacute" unicode="&#xe1;" horiz-adv-x="1130" 
d="M462 -19q-104 0 -186.5 39t-130 111.5t-47.5 170.5q0 145 102.5 226.5t290.5 92.5l311 19v98q0 206 -244 206q-97 0 -161 -35t-82 -99h-174q17 130 134 208.5t289 78.5q197 0 303.5 -95.5t106.5 -263.5v-738h-164v159h-16q-108 -178 -332 -178zM494 132q89 0 158.5 35.5
t109.5 96.5t40 138v99l-290 -19q-123 -8 -179.5 -51.5t-56.5 -124.5q0 -82 62 -128t156 -46zM642 1228h-152l177 340h206z" />
    <glyph glyph-name="acircumflex" unicode="&#xe2;" horiz-adv-x="1130" 
d="M462 -19q-104 0 -186.5 39t-130 111.5t-47.5 170.5q0 145 102.5 226.5t290.5 92.5l311 19v98q0 206 -244 206q-97 0 -161 -35t-82 -99h-174q17 130 134 208.5t289 78.5q197 0 303.5 -95.5t106.5 -263.5v-738h-164v159h-16q-108 -178 -332 -178zM494 132q89 0 158.5 35.5
t109.5 96.5t40 138v99l-290 -19q-123 -8 -179.5 -51.5t-56.5 -124.5q0 -82 62 -128t156 -46zM665 1568l242 -340h-188l-147 227h-16l-147 -227h-188l242 340h202z" />
    <glyph glyph-name="atilde" unicode="&#xe3;" horiz-adv-x="1130" 
d="M462 -19q-104 0 -186.5 39t-130 111.5t-47.5 170.5q0 145 102.5 226.5t290.5 92.5l311 19v98q0 206 -244 206q-97 0 -161 -35t-82 -99h-174q17 130 134 208.5t289 78.5q197 0 303.5 -95.5t106.5 -263.5v-738h-164v159h-16q-108 -178 -332 -178zM494 132q89 0 158.5 35.5
t109.5 96.5t40 138v99l-290 -19q-123 -8 -179.5 -51.5t-56.5 -124.5q0 -82 62 -128t156 -46zM688 1235q-61 0 -96.5 22.5t-58.5 52.5t-45 52.5t-56 22.5q-36 0 -56 -34.5t-20 -119.5h-142q0 137 57.5 212.5t163.5 75.5q60 0 96.5 -23.5t61 -55t47.5 -55t56 -23.5
q41 0 58.5 37.5t17.5 122.5h142q0 -136 -58.5 -211.5t-167.5 -75.5z" />
    <glyph glyph-name="adieresis" unicode="&#xe4;" horiz-adv-x="1130" 
d="M462 -19q-104 0 -186.5 39t-130 111.5t-47.5 170.5q0 145 102.5 226.5t290.5 92.5l311 19v98q0 206 -244 206q-97 0 -161 -35t-82 -99h-174q17 130 134 208.5t289 78.5q197 0 303.5 -95.5t106.5 -263.5v-738h-164v159h-16q-108 -178 -332 -178zM494 132q89 0 158.5 35.5
t109.5 96.5t40 138v99l-290 -19q-123 -8 -179.5 -51.5t-56.5 -124.5q0 -82 62 -128t156 -46zM347 1286q-49 0 -84.5 35.5t-35.5 84.5q0 50 35.5 85t84.5 35q50 0 85 -35t35 -85q0 -49 -35 -84.5t-85 -35.5zM781 1286q-49 0 -84.5 35.5t-35.5 84.5q0 50 35.5 85t84.5 35
q50 0 85 -35t35 -85q0 -49 -35 -84.5t-85 -35.5z" />
    <glyph glyph-name="aring" unicode="&#xe5;" horiz-adv-x="1130" 
d="M462 -19q-104 0 -186.5 39t-130 111.5t-47.5 170.5q0 145 102.5 226.5t290.5 92.5l311 19v98q0 206 -244 206q-97 0 -161 -35t-82 -99h-174q17 130 134 208.5t289 78.5q197 0 303.5 -95.5t106.5 -263.5v-738h-164v159h-16q-108 -178 -332 -178zM494 132q89 0 158.5 35.5
t109.5 96.5t40 138v99l-290 -19q-123 -8 -179.5 -51.5t-56.5 -124.5q0 -82 62 -128t156 -46zM564 1228q-96 0 -164 66t-68 163t68 163t164 66t164 -66t68 -163t-68 -163t-164 -66zM564 1334q53 0 87.5 35.5t34.5 87.5q0 53 -34.5 88t-87.5 35q-52 0 -87 -35t-35 -88
q0 -52 35 -87.5t87 -35.5z" />
    <glyph glyph-name="ae" unicode="&#xe6;" horiz-adv-x="1849" 
d="M1287 -19q-130 0 -236.5 65.5t-149.5 165.5h-16q-52 -108 -157 -169.5t-249 -61.5q-169 0 -275 86.5t-106 234.5q0 145 102.5 226.5t290.5 92.5l311 19v98q0 206 -244 206q-97 0 -161 -35t-82 -99h-174q17 130 133.5 208.5t289.5 78.5q128 0 217.5 -52.5t130.5 -132.5h16
q47 80 144 132.5t213 52.5q214 0 335 -140.5t121 -388.5v-68h-768v-18q7 -159 93 -253.5t225 -94.5q195 0 264 145h172q-40 -142 -155 -220t-285 -78zM1276 946q-130 0 -211.5 -82.5t-91.5 -224.5h587q-3 135 -82.5 221t-201.5 86zM504 132q86 0 153.5 37.5t106 100.5
t38.5 140v91l-290 -19q-123 -8 -179.5 -51.5t-56.5 -124.5q0 -82 63.5 -128t164.5 -46z" />
    <glyph glyph-name="ccedilla" unicode="&#xe7;" horiz-adv-x="1146" 
d="M1054 748h-174q-21 80 -91.5 137t-186.5 57q-145 0 -230.5 -108t-85.5 -291q0 -187 86 -297t230 -110q109 0 181.5 49t96.5 140h174q-23 -148 -140 -246t-311 -98q-151 0 -262 69t-172 195.5t-61 297.5q0 168 60.5 292.5t171.5 193t262 68.5q131 0 227 -47t153 -126.5
t72 -175.5zM473 -240v90l97 172h131v-22l-78 -132q102 0 162.5 -43t60.5 -120q0 -70 -36.5 -112.5t-95.5 -62t-127 -19.5q-35 0 -71.5 5t-73.5 13v116q12 -3 44 -8t69 -5q47 0 87.5 14.5t40.5 52.5q0 36 -37.5 48.5t-111.5 12.5h-61z" />
    <glyph glyph-name="egrave" unicode="&#xe8;" horiz-adv-x="1170" 
d="M876 279h172q-37 -138 -157 -218t-297 -80q-149 0 -258.5 68t-168.5 193.5t-59 295.5t60 295.5t169 194.5t257 69q218 0 343 -145.5t125 -396.5v-66h-775v-8q7 -160 90.5 -254t220.5 -94q209 0 278 146zM592 945q-129 0 -212 -87t-93 -230h594q-3 143 -82 230t-207 87z
M516 1228l-231 340h206l177 -340h-152z" />
    <glyph glyph-name="eacute" unicode="&#xe9;" horiz-adv-x="1170" 
d="M876 279h172q-37 -138 -157 -218t-297 -80q-149 0 -258.5 68t-168.5 193.5t-59 295.5t60 295.5t169 194.5t257 69q218 0 343 -145.5t125 -396.5v-66h-775v-8q7 -160 90.5 -254t220.5 -94q209 0 278 146zM592 945q-129 0 -212 -87t-93 -230h594q-3 143 -82 230t-207 87z
M672 1228h-152l177 340h206z" />
    <glyph glyph-name="ecircumflex" unicode="&#xea;" horiz-adv-x="1170" 
d="M876 279h172q-37 -138 -157 -218t-297 -80q-149 0 -258.5 68t-168.5 193.5t-59 295.5t60 295.5t169 194.5t257 69q218 0 343 -145.5t125 -396.5v-66h-775v-8q7 -160 90.5 -254t220.5 -94q209 0 278 146zM592 945q-129 0 -212 -87t-93 -230h594q-3 143 -82 230t-207 87z
M695 1568l242 -340h-188l-147 227h-16l-147 -227h-188l242 340h202z" />
    <glyph glyph-name="edieresis" unicode="&#xeb;" horiz-adv-x="1170" 
d="M876 279h172q-37 -138 -157 -218t-297 -80q-149 0 -258.5 68t-168.5 193.5t-59 295.5t60 295.5t169 194.5t257 69q218 0 343 -145.5t125 -396.5v-66h-775v-8q7 -160 90.5 -254t220.5 -94q209 0 278 146zM592 945q-129 0 -212 -87t-93 -230h594q-3 143 -82 230t-207 87z
M377 1286q-49 0 -84.5 35.5t-35.5 84.5q0 50 35.5 85t84.5 35q50 0 85 -35t35 -85q0 -49 -35 -84.5t-85 -35.5zM811 1286q-49 0 -84.5 35.5t-35.5 84.5q0 50 35.5 85t84.5 35q50 0 85 -35t35 -85q0 -49 -35 -84.5t-85 -35.5z" />
    <glyph glyph-name="igrave" unicode="&#xec;" horiz-adv-x="504" 
d="M166 0v1078h172v-1078h-172zM174 1228l-231 340h206l177 -340h-152z" />
    <glyph glyph-name="iacute" unicode="&#xed;" horiz-adv-x="504" 
d="M166 0v1078h172v-1078h-172zM330 1228h-152l177 340h206z" />
    <glyph glyph-name="icircumflex" unicode="&#xee;" horiz-adv-x="504" 
d="M166 0v1078h172v-1078h-172zM353 1568l242 -340h-188l-147 227h-16l-147 -227h-188l242 340h202z" />
    <glyph glyph-name="idieresis" unicode="&#xef;" horiz-adv-x="504" 
d="M166 0v1078h172v-1078h-172zM35 1286q-49 0 -84.5 35.5t-35.5 84.5q0 50 35.5 85t84.5 35q50 0 85 -35t35 -85q0 -49 -35 -84.5t-85 -35.5zM469 1286q-49 0 -84.5 35.5t-35.5 84.5q0 50 35.5 85t84.5 35q50 0 85 -35t35 -85q0 -49 -35 -84.5t-85 -35.5z" />
    <glyph glyph-name="eth" unicode="&#xf0;" horiz-adv-x="1192" 
d="M601 -19q-152 0 -263 64.5t-170.5 183.5t-59.5 280t57 282t159 188t237 67q101 0 187 -52.5t121 -125.5h15q-39 122 -120.5 220.5t-196.5 177.5l-291 -165v130l180 103q-85 46 -186 87v126q179 -54 321 -137l281 160l2 -130l-176 -100q189 -138 287.5 -335t98.5 -444
q0 -177 -58.5 -307.5t-167 -201.5t-257.5 -71zM601 898q-145 0 -231.5 -106.5t-86.5 -282.5q0 -169 86.5 -273t231.5 -104q146 0 233 104t87 273q0 175 -87.5 282t-232.5 107z" />
    <glyph glyph-name="ntilde" unicode="&#xf1;" horiz-adv-x="1195" 
d="M162 0v1078h164v-170h16q41 89 120.5 139t203.5 50q182 0 279.5 -103.5t97.5 -295.5v-698h-172v656q0 286 -254 286q-129 0 -206 -81t-77 -223v-638h-172zM727 1235q-61 0 -96.5 22.5t-58.5 52.5t-45 52.5t-56 22.5q-36 0 -56 -34.5t-20 -119.5h-142q0 137 57.5 212.5
t163.5 75.5q60 0 96.5 -23.5t61 -55t47.5 -55t56 -23.5q41 0 58.5 37.5t17.5 122.5h142q0 -136 -58.5 -211.5t-167.5 -75.5z" />
    <glyph glyph-name="ograve" unicode="&#xf2;" horiz-adv-x="1210" 
d="M605 -19q-230 0 -363.5 149.5t-133.5 408.5q0 260 133.5 409t363.5 149t363.5 -149t133.5 -409q0 -259 -133.5 -408.5t-363.5 -149.5zM605 136q153 0 236 106t83 297q0 192 -83 297.5t-236 105.5t-236 -105.5t-83 -297.5q0 -191 83 -297t236 -106zM527 1228l-231 340h206
l177 -340h-152z" />
    <glyph glyph-name="oacute" unicode="&#xf3;" horiz-adv-x="1210" 
d="M605 -19q-230 0 -363.5 149.5t-133.5 408.5q0 260 133.5 409t363.5 149t363.5 -149t133.5 -409q0 -259 -133.5 -408.5t-363.5 -149.5zM605 136q153 0 236 106t83 297q0 192 -83 297.5t-236 105.5t-236 -105.5t-83 -297.5q0 -191 83 -297t236 -106zM683 1228h-152l177 340
h206z" />
    <glyph glyph-name="ocircumflex" unicode="&#xf4;" horiz-adv-x="1210" 
d="M605 -19q-230 0 -363.5 149.5t-133.5 408.5q0 260 133.5 409t363.5 149t363.5 -149t133.5 -409q0 -259 -133.5 -408.5t-363.5 -149.5zM605 136q153 0 236 106t83 297q0 192 -83 297.5t-236 105.5t-236 -105.5t-83 -297.5q0 -191 83 -297t236 -106zM706 1568l242 -340
h-188l-147 227h-16l-147 -227h-188l242 340h202z" />
    <glyph glyph-name="otilde" unicode="&#xf5;" horiz-adv-x="1210" 
d="M605 -19q-230 0 -363.5 149.5t-133.5 408.5q0 260 133.5 409t363.5 149t363.5 -149t133.5 -409q0 -259 -133.5 -408.5t-363.5 -149.5zM605 136q153 0 236 106t83 297q0 192 -83 297.5t-236 105.5t-236 -105.5t-83 -297.5q0 -191 83 -297t236 -106zM729 1235
q-61 0 -96.5 22.5t-58.5 52.5t-45 52.5t-56 22.5q-36 0 -56 -34.5t-20 -119.5h-142q0 137 57.5 212.5t163.5 75.5q60 0 96.5 -23.5t61 -55t47.5 -55t56 -23.5q41 0 58.5 37.5t17.5 122.5h142q0 -136 -58.5 -211.5t-167.5 -75.5z" />
    <glyph glyph-name="odieresis" unicode="&#xf6;" horiz-adv-x="1210" 
d="M605 -19q-230 0 -363.5 149.5t-133.5 408.5q0 260 133.5 409t363.5 149t363.5 -149t133.5 -409q0 -259 -133.5 -408.5t-363.5 -149.5zM605 136q153 0 236 106t83 297q0 192 -83 297.5t-236 105.5t-236 -105.5t-83 -297.5q0 -191 83 -297t236 -106zM388 1286
q-49 0 -84.5 35.5t-35.5 84.5q0 50 35.5 85t84.5 35q50 0 85 -35t35 -85q0 -49 -35 -84.5t-85 -35.5zM822 1286q-49 0 -84.5 35.5t-35.5 84.5q0 50 35.5 85t84.5 35q50 0 85 -35t35 -85q0 -49 -35 -84.5t-85 -35.5z" />
    <glyph glyph-name="divide" unicode="&#xf7;" horiz-adv-x="1328" 
d="M665 832q-54 0 -90 35t-36 90q0 54 36 89.5t90 35.5q53 0 88.5 -35.5t35.5 -89.5q0 -55 -35.5 -90t-88.5 -35zM1147 493h-966v152h966v-152zM665 56q-54 0 -90 35t-36 90q0 54 36 89.5t90 35.5q53 0 88.5 -35.5t35.5 -89.5q0 -55 -35.5 -90t-88.5 -35z" />
    <glyph glyph-name="oslash" unicode="&#xf8;" horiz-adv-x="1210" 
d="M605 -19q-187 0 -312 101l-88 -101l-94 92l93 106q-96 143 -96 360q0 260 133.5 409t363.5 149q187 0 312 -100l88 100l94 -92l-92 -106q95 -142 95 -360q0 -259 -133.5 -408.5t-363.5 -149.5zM277 539q0 -134 41 -228l496 567q-82 71 -209 71q-157 0 -242.5 -107
t-85.5 -303zM605 129q158 0 243 108t85 302q0 135 -41 229l-495 -567q81 -72 208 -72z" />
    <glyph glyph-name="ugrave" unicode="&#xf9;" horiz-adv-x="1196" 
d="M1034 1078v-1078h-164v169h-16q-40 -90 -125 -139t-209 -49q-181 0 -274.5 104t-93.5 295v698h172v-656q0 -145 57.5 -214.5t186.5 -69.5q143 0 218.5 80t75.5 222v638h172zM515 1228l-231 340h206l177 -340h-152z" />
    <glyph glyph-name="uacute" unicode="&#xfa;" horiz-adv-x="1196" 
d="M1034 1078v-1078h-164v169h-16q-40 -90 -125 -139t-209 -49q-181 0 -274.5 104t-93.5 295v698h172v-656q0 -145 57.5 -214.5t186.5 -69.5q143 0 218.5 80t75.5 222v638h172zM671 1228h-152l177 340h206z" />
    <glyph glyph-name="ucircumflex" unicode="&#xfb;" horiz-adv-x="1196" 
d="M1034 1078v-1078h-164v169h-16q-40 -90 -125 -139t-209 -49q-181 0 -274.5 104t-93.5 295v698h172v-656q0 -145 57.5 -214.5t186.5 -69.5q143 0 218.5 80t75.5 222v638h172zM694 1568l242 -340h-188l-147 227h-16l-147 -227h-188l242 340h202z" />
    <glyph glyph-name="udieresis" unicode="&#xfc;" horiz-adv-x="1196" 
d="M1034 1078v-1078h-164v169h-16q-40 -90 -125 -139t-209 -49q-181 0 -274.5 104t-93.5 295v698h172v-656q0 -145 57.5 -214.5t186.5 -69.5q143 0 218.5 80t75.5 222v638h172zM376 1286q-49 0 -84.5 35.5t-35.5 84.5q0 50 35.5 85t84.5 35q50 0 85 -35t35 -85
q0 -49 -35 -84.5t-85 -35.5zM810 1286q-49 0 -84.5 35.5t-35.5 84.5q0 50 35.5 85t84.5 35q50 0 85 -35t35 -85q0 -49 -35 -84.5t-85 -35.5z" />
    <glyph glyph-name="yacute" unicode="&#xfd;" horiz-adv-x="1112" 
d="M254 -390q-41 0 -77 6v147q16 -3 35 -4t37 -1q74 0 119 40t79 137l20 64l-399 1079h186l296 -887h16l295 887h183l-421 -1144q-46 -125 -94.5 -195.5t-113.5 -99.5t-161 -29zM629 1228h-152l177 340h206z" />
    <glyph glyph-name="thorn" unicode="&#xfe;" horiz-adv-x="1258" 
d="M697 1097q138 0 239.5 -69t157.5 -194t56 -295q0 -168 -56 -293.5t-158 -195t-239 -69.5q-115 0 -204 48t-133 133h-16v-522h-172v1866h164v-608h16q52 93 143.5 146t201.5 53zM656 136q149 0 232.5 107t83.5 296t-83.5 296t-231.5 107q-146 0 -232 -108.5t-86 -294.5
q0 -185 86 -294t231 -109z" />
    <glyph glyph-name="ydieresis" unicode="&#xff;" horiz-adv-x="1112" 
d="M254 -390q-41 0 -77 6v147q16 -3 35 -4t37 -1q74 0 119 40t79 137l20 64l-399 1079h186l296 -887h16l295 887h183l-421 -1144q-46 -125 -94.5 -195.5t-113.5 -99.5t-161 -29zM334 1286q-49 0 -84.5 35.5t-35.5 84.5q0 50 35.5 85t84.5 35q50 0 85 -35t35 -85
q0 -49 -35 -84.5t-85 -35.5zM768 1286q-49 0 -84.5 35.5t-35.5 84.5q0 50 35.5 85t84.5 35q50 0 85 -35t35 -85q0 -49 -35 -84.5t-85 -35.5z" />
    <glyph glyph-name="Amacron" unicode="&#x100;" horiz-adv-x="1380" 
d="M1122 0l-145 413h-574l-145 -413h-189l532 1443h178l532 -1443h-189zM682 1210l-226 -644h468l-226 644h-16zM1017 1817v-136h-654v136h654z" />
    <glyph glyph-name="amacron" unicode="&#x101;" horiz-adv-x="1130" 
d="M462 -19q-104 0 -186.5 39t-130 111.5t-47.5 170.5q0 145 102.5 226.5t290.5 92.5l311 19v98q0 206 -244 206q-97 0 -161 -35t-82 -99h-174q17 130 134 208.5t289 78.5q197 0 303.5 -95.5t106.5 -263.5v-738h-164v159h-16q-108 -178 -332 -178zM494 132q89 0 158.5 35.5
t109.5 96.5t40 138v99l-290 -19q-123 -8 -179.5 -51.5t-56.5 -124.5q0 -82 62 -128t156 -46zM891 1472v-136h-654v136h654z" />
    <glyph glyph-name="Abreve" unicode="&#x102;" horiz-adv-x="1380" 
d="M1122 0l-145 413h-574l-145 -413h-189l532 1443h178l532 -1443h-189zM682 1210l-226 -644h468l-226 644h-16zM336 1873h154q0 -79 51.5 -126t148.5 -47q98 0 149 47t51 126h154q0 -134 -92 -216t-262 -82q-169 0 -261.5 82t-92.5 216z" />
    <glyph glyph-name="abreve" unicode="&#x103;" horiz-adv-x="1130" 
d="M462 -19q-104 0 -186.5 39t-130 111.5t-47.5 170.5q0 145 102.5 226.5t290.5 92.5l311 19v98q0 206 -244 206q-97 0 -161 -35t-82 -99h-174q17 130 134 208.5t289 78.5q197 0 303.5 -95.5t106.5 -263.5v-738h-164v159h-16q-108 -178 -332 -178zM494 132q89 0 158.5 35.5
t109.5 96.5t40 138v99l-290 -19q-123 -8 -179.5 -51.5t-56.5 -124.5q0 -82 62 -128t156 -46zM215 1568h154q0 -94 46.5 -153t148.5 -59t148.5 59t46.5 153h154q0 -150 -89 -245t-260 -95t-260 95t-89 245z" />
    <glyph glyph-name="Aogonek" unicode="&#x104;" horiz-adv-x="1380" 
d="M1207 -435q-89 0 -160.5 47t-71.5 145q0 61 35 123t112 121l-145 412h-574l-145 -413h-189l532 1443h178l532 -1443q-63 -38 -115 -87t-52 -110q0 -44 28.5 -69t78.5 -25q33 0 69 10v-135q-55 -19 -113 -19zM682 1210l-226 -644h468l-226 644h-16z" />
    <glyph glyph-name="aogonek" unicode="&#x105;" horiz-adv-x="1130" 
d="M462 -19q-104 0 -186.5 39t-130 111.5t-47.5 170.5q0 145 102.5 226.5t290.5 92.5l311 19v98q0 206 -244 206q-97 0 -161 -35t-82 -99h-174q17 130 134 208.5t289 78.5q197 0 303.5 -95.5t106.5 -263.5v-738q-63 -38 -115 -87t-52 -110q0 -44 28.5 -69t78.5 -25
q33 0 69 10v-135q-55 -19 -113 -19q-89 0 -160.5 47t-71.5 145q0 66 41 133t131 130v139h-16q-108 -178 -332 -178zM494 132q89 0 158.5 35.5t109.5 96.5t40 138v99l-290 -19q-123 -8 -179.5 -51.5t-56.5 -124.5q0 -82 62 -128t156 -46z" />
    <glyph glyph-name="Cacute" unicode="&#x106;" horiz-adv-x="1466" 
d="M765 -34q-196 0 -339 92t-220.5 261.5t-77.5 401.5q0 233 77.5 402.5t220 261.5t338.5 92q152 0 276.5 -59.5t205.5 -165t102 -244.5h-183q-36 140 -144 221.5t-257 81.5q-138 0 -239.5 -72t-156.5 -204.5t-55 -313.5t55 -313t156.5 -204t240.5 -72q151 0 258.5 72.5
t141.5 197.5h183q-24 -132 -104 -230t-202.5 -152t-276.5 -54zM847 1575h-152l177 298h216z" />
    <glyph glyph-name="cacute" unicode="&#x107;" horiz-adv-x="1146" 
d="M1054 748h-174q-21 80 -91.5 137t-186.5 57q-145 0 -230.5 -108t-85.5 -291q0 -187 86 -297t230 -110q109 0 181.5 49t96.5 140h174q-23 -148 -140 -246t-311 -98q-151 0 -262 69t-172 195.5t-61 297.5q0 168 60.5 292.5t171.5 193t262 68.5q131 0 227 -47t153 -126.5
t72 -175.5zM678 1228h-152l177 340h206z" />
    <glyph glyph-name="Ccircumflex" unicode="&#x108;" horiz-adv-x="1466" 
d="M765 -34q-196 0 -339 92t-220.5 261.5t-77.5 401.5q0 233 77.5 402.5t220 261.5t338.5 92q152 0 276.5 -59.5t205.5 -165t102 -244.5h-183q-36 140 -144 221.5t-257 81.5q-138 0 -239.5 -72t-156.5 -204.5t-55 -313.5t55 -313t156.5 -204t240.5 -72q151 0 258.5 72.5
t141.5 197.5h183q-24 -132 -104 -230t-202.5 -152t-276.5 -54zM682 1873h164l300 -298h-202l-172 177h-16l-172 -177h-202z" />
    <glyph glyph-name="ccircumflex" unicode="&#x109;" horiz-adv-x="1146" 
d="M1054 748h-174q-21 80 -91.5 137t-186.5 57q-145 0 -230.5 -108t-85.5 -291q0 -187 86 -297t230 -110q109 0 181.5 49t96.5 140h174q-23 -148 -140 -246t-311 -98q-151 0 -262 69t-172 195.5t-61 297.5q0 168 60.5 292.5t171.5 193t262 68.5q131 0 227 -47t153 -126.5
t72 -175.5zM701 1568l242 -340h-188l-147 227h-16l-147 -227h-188l242 340h202z" />
    <glyph glyph-name="Cdotaccent" unicode="&#x10a;" horiz-adv-x="1466" 
d="M765 -34q-196 0 -339 92t-220.5 261.5t-77.5 401.5q0 233 77.5 402.5t220 261.5t338.5 92q152 0 276.5 -59.5t205.5 -165t102 -244.5h-183q-36 140 -144 221.5t-257 81.5q-138 0 -239.5 -72t-156.5 -204.5t-55 -313.5t55 -313t156.5 -204t240.5 -72q151 0 258.5 72.5
t141.5 197.5h183q-24 -132 -104 -230t-202.5 -152t-276.5 -54zM764 1631q-49 0 -84.5 35.5t-35.5 84.5q0 50 35.5 85t84.5 35q50 0 85 -35t35 -85q0 -49 -35 -84.5t-85 -35.5z" />
    <glyph glyph-name="cdotaccent" unicode="&#x10b;" horiz-adv-x="1146" 
d="M1054 748h-174q-21 80 -91.5 137t-186.5 57q-145 0 -230.5 -108t-85.5 -291q0 -187 86 -297t230 -110q109 0 181.5 49t96.5 140h174q-23 -148 -140 -246t-311 -98q-151 0 -262 69t-172 195.5t-61 297.5q0 168 60.5 292.5t171.5 193t262 68.5q131 0 227 -47t153 -126.5
t72 -175.5zM600 1286q-49 0 -84.5 35.5t-35.5 84.5q0 50 35.5 85t84.5 35q50 0 85 -35t35 -85q0 -49 -35 -84.5t-85 -35.5z" />
    <glyph glyph-name="Ccaron" unicode="&#x10c;" horiz-adv-x="1466" 
d="M765 -34q-196 0 -339 92t-220.5 261.5t-77.5 401.5q0 233 77.5 402.5t220 261.5t338.5 92q152 0 276.5 -59.5t205.5 -165t102 -244.5h-183q-36 140 -144 221.5t-257 81.5q-138 0 -239.5 -72t-156.5 -204.5t-55 -313.5t55 -313t156.5 -204t240.5 -72q151 0 258.5 72.5
t141.5 197.5h183q-24 -132 -104 -230t-202.5 -152t-276.5 -54zM846 1575h-164l-300 298h202l172 -177h16l172 177h202z" />
    <glyph glyph-name="ccaron" unicode="&#x10d;" horiz-adv-x="1146" 
d="M1054 748h-174q-21 80 -91.5 137t-186.5 57q-145 0 -230.5 -108t-85.5 -291q0 -187 86 -297t230 -110q109 0 181.5 49t96.5 140h174q-23 -148 -140 -246t-311 -98q-151 0 -262 69t-172 195.5t-61 297.5q0 168 60.5 292.5t171.5 193t262 68.5q131 0 227 -47t153 -126.5
t72 -175.5zM499 1228l-242 340h188l147 -227h16l147 227h188l-242 -340h-202z" />
    <glyph glyph-name="Dcaron" unicode="&#x10e;" horiz-adv-x="1488" 
d="M184 1443h495q214 0 366.5 -85.5t233.5 -247t81 -388.5q0 -341 -179.5 -531.5t-501.5 -190.5h-495v1443zM364 1281v-1119h303q242 0 375.5 147t133.5 411q0 265 -134.5 413t-374.5 148h-303zM696 1575h-164l-300 298h202l172 -177h16l172 177h202z" />
    <glyph glyph-name="dcaron" unicode="&#x10f;" horiz-adv-x="1395" 
d="M1237 1568h178l-58 -490h-120v490zM561 -19q-138 0 -240 69t-157.5 194.5t-55.5 294.5t56 294.5t158 194.5t239 69q113 0 202.5 -50t135.5 -139h15v598h172v-1506h-164v172h-16q-51 -90 -142 -140.5t-203 -50.5zM601 942q-147 0 -231 -107.5t-84 -295.5q0 -189 83.5 -296
t231.5 -107q147 0 232 108t85 295q0 185 -85.5 294t-231.5 109z" />
    <glyph glyph-name="Dcroat" unicode="&#x110;" horiz-adv-x="1488" 
d="M26 663v162h158v618h495q214 0 366.5 -85.5t233.5 -247t81 -388.5q0 -341 -179.5 -531.5t-501.5 -190.5h-495v663h-158zM364 1281v-456h309v-162h-309v-501h303q242 0 375.5 147t133.5 411q0 265 -134.5 413t-374.5 148h-303z" />
    <glyph glyph-name="dcroat" unicode="&#x111;" horiz-adv-x="1258" 
d="M561 -19q-138 0 -240 69t-157.5 194.5t-55.5 294.5t56 294.5t158 194.5t239 69q113 0 202.5 -50t135.5 -139h15v369h-260v144h260v85h172v-85h145v-144h-145v-1277h-164v172h-16q-51 -90 -142 -140.5t-203 -50.5zM601 942q-147 0 -231 -107.5t-84 -295.5
q0 -189 83.5 -296t231.5 -107q147 0 232 108t85 295q0 185 -85.5 294t-231.5 109z" />
    <glyph glyph-name="Emacron" unicode="&#x112;" horiz-adv-x="1220" 
d="M1078 162v-162h-894v1443h894v-162h-714v-463h677v-160h-677v-496h714zM958 1817v-136h-654v136h654z" />
    <glyph glyph-name="emacron" unicode="&#x113;" horiz-adv-x="1170" 
d="M876 279h172q-37 -138 -157 -218t-297 -80q-149 0 -258.5 68t-168.5 193.5t-59 295.5t60 295.5t169 194.5t257 69q218 0 343 -145.5t125 -396.5v-66h-775v-8q7 -160 90.5 -254t220.5 -94q209 0 278 146zM592 945q-129 0 -212 -87t-93 -230h594q-3 143 -82 230t-207 87z
M921 1472v-136h-654v136h654z" />
    <glyph glyph-name="Ebreve" unicode="&#x114;" horiz-adv-x="1220" 
d="M1078 162v-162h-894v1443h894v-162h-714v-463h677v-160h-677v-496h714zM277 1873h154q0 -79 51.5 -126t148.5 -47q98 0 149 47t51 126h154q0 -134 -92 -216t-262 -82q-169 0 -261.5 82t-92.5 216z" />
    <glyph glyph-name="ebreve" unicode="&#x115;" horiz-adv-x="1170" 
d="M876 279h172q-37 -138 -157 -218t-297 -80q-149 0 -258.5 68t-168.5 193.5t-59 295.5t60 295.5t169 194.5t257 69q218 0 343 -145.5t125 -396.5v-66h-775v-8q7 -160 90.5 -254t220.5 -94q209 0 278 146zM592 945q-129 0 -212 -87t-93 -230h594q-3 143 -82 230t-207 87z
M245 1568h154q0 -94 46.5 -153t148.5 -59t148.5 59t46.5 153h154q0 -150 -89 -245t-260 -95t-260 95t-89 245z" />
    <glyph glyph-name="Edotaccent" unicode="&#x116;" horiz-adv-x="1220" 
d="M1078 162v-162h-894v1443h894v-162h-714v-463h677v-160h-677v-496h714zM631 1631q-49 0 -84.5 35.5t-35.5 84.5q0 50 35.5 85t84.5 35q50 0 85 -35t35 -85q0 -49 -35 -84.5t-85 -35.5z" />
    <glyph glyph-name="edotaccent" unicode="&#x117;" horiz-adv-x="1170" 
d="M876 279h172q-37 -138 -157 -218t-297 -80q-149 0 -258.5 68t-168.5 193.5t-59 295.5t60 295.5t169 194.5t257 69q218 0 343 -145.5t125 -396.5v-66h-775v-8q7 -160 90.5 -254t220.5 -94q209 0 278 146zM592 945q-129 0 -212 -87t-93 -230h594q-3 143 -82 230t-207 87z
M594 1286q-49 0 -84.5 35.5t-35.5 84.5q0 50 35.5 85t84.5 35q50 0 85 -35t35 -85q0 -49 -35 -84.5t-85 -35.5z" />
    <glyph glyph-name="Eogonek" unicode="&#x118;" horiz-adv-x="1220" 
d="M974 -435q-89 0 -160.5 47t-71.5 145q0 61 34.5 122.5t110.5 120.5h-703v1443h894v-162h-714v-463h677v-160h-677v-496h714v-162q-63 -38 -115 -87t-52 -110q0 -44 28.5 -69t78.5 -25q33 0 69 10v-135q-55 -19 -113 -19z" />
    <glyph glyph-name="eogonek" unicode="&#x119;" horiz-adv-x="1170" 
d="M784 -435q-59 0 -113.5 20t-89 62.5t-34.5 107.5q0 114 138 232q-44 -6 -91 -6q-149 0 -258.5 68t-168.5 193.5t-59 295.5t60 295.5t169 194.5t257 69q218 0 343 -145.5t125 -396.5v-66h-775v-8q7 -160 90.5 -254t220.5 -94q209 0 278 146h172q-31 -113 -117 -187
q-49 -49 -99 -96t-83 -95t-33 -99q0 -14 6.5 -36.5t29 -40t69.5 -17.5q35 0 76 11v-135q-55 -19 -113 -19zM592 945q-129 0 -212 -87t-93 -230h594q-3 143 -82 230t-207 87z" />
    <glyph glyph-name="Ecaron" unicode="&#x11a;" horiz-adv-x="1220" 
d="M1078 162v-162h-894v1443h894v-162h-714v-463h677v-160h-677v-496h714zM713 1575h-164l-300 298h202l172 -177h16l172 177h202z" />
    <glyph glyph-name="ecaron" unicode="&#x11b;" horiz-adv-x="1170" 
d="M876 279h172q-37 -138 -157 -218t-297 -80q-149 0 -258.5 68t-168.5 193.5t-59 295.5t60 295.5t169 194.5t257 69q218 0 343 -145.5t125 -396.5v-66h-775v-8q7 -160 90.5 -254t220.5 -94q209 0 278 146zM592 945q-129 0 -212 -87t-93 -230h594q-3 143 -82 230t-207 87z
M493 1228l-242 340h188l147 -227h16l147 227h188l-242 -340h-202z" />
    <glyph glyph-name="Gcircumflex" unicode="&#x11c;" horiz-adv-x="1529" 
d="M1395 558q0 -178 -76.5 -311t-214 -207t-322.5 -74q-199 0 -346 92.5t-227.5 262.5t-80.5 401q0 228 81 398t228.5 263.5t344.5 93.5q160 0 287 -56.5t209 -160.5t108 -247h-183q-95 298 -421 298q-143 0 -248.5 -72.5t-163 -204.5t-57.5 -312q0 -182 57 -314.5
t162.5 -204t250.5 -71.5q129 0 226.5 51.5t152 143.5t54.5 214v35h-406v158h585v-176zM700 1873h164l300 -298h-202l-172 177h-16l-172 -177h-202z" />
    <glyph glyph-name="gcircumflex" unicode="&#x11d;" horiz-adv-x="1248" 
d="M606 -414q-195 0 -313.5 81t-138.5 214h182q14 -66 84 -105.5t186 -39.5q145 0 226.5 67.5t81.5 186.5v212h-16q-51 -89 -139 -137.5t-199 -48.5q-139 0 -240.5 67.5t-156.5 189t-55 282.5q0 162 55.5 284t157 190t239.5 68q113 0 206.5 -51.5t139.5 -138.5h16v171h164
v-1097q0 -181 -129.5 -288t-350.5 -107zM598 168q150 0 235 105.5t85 281.5t-85.5 281.5t-234.5 105.5q-150 0 -231 -105.5t-81 -281.5t81 -281.5t231 -105.5zM715 1568l242 -340h-188l-147 227h-16l-147 -227h-188l242 340h202z" />
    <glyph glyph-name="Gbreve" unicode="&#x11e;" horiz-adv-x="1529" 
d="M1395 558q0 -178 -76.5 -311t-214 -207t-322.5 -74q-199 0 -346 92.5t-227.5 262.5t-80.5 401q0 228 81 398t228.5 263.5t344.5 93.5q160 0 287 -56.5t209 -160.5t108 -247h-183q-95 298 -421 298q-143 0 -248.5 -72.5t-163 -204.5t-57.5 -312q0 -182 57 -314.5
t162.5 -204t250.5 -71.5q129 0 226.5 51.5t152 143.5t54.5 214v35h-406v158h585v-176zM428 1873h154q0 -79 51.5 -126t148.5 -47q98 0 149 47t51 126h154q0 -134 -92 -216t-262 -82q-169 0 -261.5 82t-92.5 216z" />
    <glyph glyph-name="gbreve" unicode="&#x11f;" horiz-adv-x="1248" 
d="M606 -414q-195 0 -313.5 81t-138.5 214h182q14 -66 84 -105.5t186 -39.5q145 0 226.5 67.5t81.5 186.5v212h-16q-51 -89 -139 -137.5t-199 -48.5q-139 0 -240.5 67.5t-156.5 189t-55 282.5q0 162 55.5 284t157 190t239.5 68q113 0 206.5 -51.5t139.5 -138.5h16v171h164
v-1097q0 -181 -129.5 -288t-350.5 -107zM598 168q150 0 235 105.5t85 281.5t-85.5 281.5t-234.5 105.5q-150 0 -231 -105.5t-81 -281.5t81 -281.5t231 -105.5zM265 1568h154q0 -94 46.5 -153t148.5 -59t148.5 59t46.5 153h154q0 -150 -89 -245t-260 -95t-260 95t-89 245z
" />
    <glyph glyph-name="Gdotaccent" unicode="&#x120;" horiz-adv-x="1529" 
d="M1395 558q0 -178 -76.5 -311t-214 -207t-322.5 -74q-199 0 -346 92.5t-227.5 262.5t-80.5 401q0 228 81 398t228.5 263.5t344.5 93.5q160 0 287 -56.5t209 -160.5t108 -247h-183q-95 298 -421 298q-143 0 -248.5 -72.5t-163 -204.5t-57.5 -312q0 -182 57 -314.5
t162.5 -204t250.5 -71.5q129 0 226.5 51.5t152 143.5t54.5 214v35h-406v158h585v-176zM782 1631q-49 0 -84.5 35.5t-35.5 84.5q0 50 35.5 85t84.5 35q50 0 85 -35t35 -85q0 -49 -35 -84.5t-85 -35.5z" />
    <glyph glyph-name="gdotaccent" unicode="&#x121;" horiz-adv-x="1248" 
d="M606 -414q-195 0 -313.5 81t-138.5 214h182q14 -66 84 -105.5t186 -39.5q145 0 226.5 67.5t81.5 186.5v212h-16q-51 -89 -139 -137.5t-199 -48.5q-139 0 -240.5 67.5t-156.5 189t-55 282.5q0 162 55.5 284t157 190t239.5 68q113 0 206.5 -51.5t139.5 -138.5h16v171h164
v-1097q0 -181 -129.5 -288t-350.5 -107zM598 168q150 0 235 105.5t85 281.5t-85.5 281.5t-234.5 105.5q-150 0 -231 -105.5t-81 -281.5t81 -281.5t231 -105.5zM614 1286q-49 0 -84.5 35.5t-35.5 84.5q0 50 35.5 85t84.5 35q50 0 85 -35t35 -85q0 -49 -35 -84.5t-85 -35.5z
" />
    <glyph glyph-name="uni0122" unicode="&#x122;" horiz-adv-x="1529" 
d="M1395 558q0 -178 -76.5 -311t-214 -207t-322.5 -74q-199 0 -346 92.5t-227.5 262.5t-80.5 401q0 228 81 398t228.5 263.5t344.5 93.5q160 0 287 -56.5t209 -160.5t108 -247h-183q-95 298 -421 298q-143 0 -248.5 -72.5t-163 -204.5t-57.5 -312q0 -182 57 -314.5
t162.5 -204t250.5 -71.5q129 0 226.5 51.5t152 143.5t54.5 214v35h-406v158h585v-176zM736 -494h-127l82 377h182z" />
    <glyph glyph-name="uni0123" unicode="&#x123;" horiz-adv-x="1248" 
d="M660 1605h127l-82 -377h-182zM606 -414q-195 0 -313.5 81t-138.5 214h182q14 -66 84 -105.5t186 -39.5q145 0 226.5 67.5t81.5 186.5v212h-16q-51 -89 -139 -137.5t-199 -48.5q-139 0 -240.5 67.5t-156.5 189t-55 282.5q0 162 55.5 284t157 190t239.5 68
q113 0 206.5 -51.5t139.5 -138.5h16v171h164v-1097q0 -181 -129.5 -288t-350.5 -107zM598 168q150 0 235 105.5t85 281.5t-85.5 281.5t-234.5 105.5q-150 0 -231 -105.5t-81 -281.5t81 -281.5t231 -105.5z" />
    <glyph glyph-name="Hcircumflex" unicode="&#x124;" horiz-adv-x="1520" 
d="M1336 0h-180v657h-792v-657h-180v1443h180v-624h792v624h180v-1443zM678 1873h164l300 -298h-202l-172 177h-16l-172 -177h-202z" />
    <glyph glyph-name="hcircumflex" unicode="&#x125;" horiz-adv-x="1216" 
d="M172 0v1506h172v-598h16q41 89 124.5 139t207.5 50q171 0 271.5 -104.5t100.5 -294.5v-698h-172v656q0 286 -249 286q-145 0 -222 -83.5t-77 -220.5v-638h-172zM176 1936h164l300 -298h-202l-172 177h-16l-172 -177h-202z" />
    <glyph glyph-name="Hbar" unicode="&#x126;" horiz-adv-x="1520" 
d="M40 1065v162h144v216h180v-216h792v216h180v-216h144v-162h-144v-1065h-180v657h-792v-657h-180v1065h-144zM364 819h792v246h-792v-246z" />
    <glyph glyph-name="hbar" unicode="&#x127;" horiz-adv-x="1216" 
d="M172 0v1277h-144v144h144v85h172v-85h264v-144h-264v-369h16q41 89 124.5 139t207.5 50q171 0 271.5 -104.5t100.5 -294.5v-698h-172v656q0 286 -249 286q-145 0 -222 -83.5t-77 -220.5v-638h-172z" />
    <glyph glyph-name="Itilde" unicode="&#x128;" horiz-adv-x="548" 
d="M364 0h-180v1443h180v-1443zM398 1580q-61 0 -96.5 22.5t-58.5 52.5t-45 52.5t-56 22.5q-36 0 -56 -34.5t-20 -119.5h-142q0 137 57.5 212.5t163.5 75.5q60 0 96.5 -23.5t61 -55t47.5 -55t56 -23.5q41 0 58.5 37.5t17.5 122.5h142q0 -136 -58.5 -211.5t-167.5 -75.5z" />
    <glyph glyph-name="itilde" unicode="&#x129;" horiz-adv-x="504" 
d="M166 0v1078h172v-1078h-172zM376 1235q-61 0 -96.5 22.5t-58.5 52.5t-45 52.5t-56 22.5q-36 0 -56 -34.5t-20 -119.5h-142q0 137 57.5 212.5t163.5 75.5q60 0 96.5 -23.5t61 -55t47.5 -55t56 -23.5q41 0 58.5 37.5t17.5 122.5h142q0 -136 -58.5 -211.5t-167.5 -75.5z" />
    <glyph glyph-name="Imacron" unicode="&#x12a;" horiz-adv-x="548" 
d="M364 0h-180v1443h180v-1443zM601 1817v-136h-654v136h654z" />
    <glyph glyph-name="imacron" unicode="&#x12b;" horiz-adv-x="504" 
d="M166 0v1078h172v-1078h-172zM529.942 1472v-136h-555.885v136h555.885z" />
    <glyph glyph-name="Ibreve" unicode="&#x12c;" horiz-adv-x="548" 
d="M364 0h-180v1443h180v-1443zM-80 1873h154q0 -79 51.5 -126t148.5 -47q98 0 149 47t51 126h154q0 -134 -92 -216t-262 -82q-169 0 -261.5 82t-92.5 216z" />
    <glyph glyph-name="ibreve" unicode="&#x12d;" horiz-adv-x="504" 
d="M166 0v1078h172v-1078h-172zM-97 1568h154q0 -94 46.5 -153t148.5 -59t148.5 59t46.5 153h154q0 -150 -89 -245t-260 -95t-260 95t-89 245z" />
    <glyph glyph-name="Iogonek" unicode="&#x12e;" horiz-adv-x="548" 
d="M260 -435q-89 0 -160.5 47t-71.5 145q0 63 37.5 127t118.5 124v1435h180v-1443q-63 -38 -115 -87t-52 -110q0 -44 28.5 -69t78.5 -25q33 0 69 10v-135q-55 -19 -113 -19z" />
    <glyph glyph-name="iogonek" unicode="&#x12f;" horiz-adv-x="504" 
d="M252 1286q-49 0 -84.5 35.5t-35.5 84.5q0 50 35.5 85t84.5 35q50 0 85 -35t35 -85q0 -49 -35 -84.5t-85 -35.5zM234 -435q-89 0 -160.5 47t-71.5 145q0 65 39 130.5t125 126.5v1064h172v-1078q-63 -38 -115 -87t-52 -110q0 -44 28.5 -69t78.5 -25q33 0 69 10v-135
q-55 -19 -113 -19z" />
    <glyph glyph-name="Idotaccent" unicode="&#x130;" horiz-adv-x="548" 
d="M364 0h-180v1443h180v-1443zM274 1631q-49 0 -84.5 35.5t-35.5 84.5q0 50 35.5 85t84.5 35q50 0 85 -35t35 -85q0 -49 -35 -84.5t-85 -35.5z" />
    <glyph glyph-name="dotlessi" unicode="&#x131;" horiz-adv-x="504" 
d="M166 0v1078h172v-1078h-172z" />
    <glyph glyph-name="IJ" unicode="&#x132;" horiz-adv-x="1650" 
d="M364 0h-180v1443h180v-1443zM634 337h179q3 -91 66.5 -148t165.5 -57q116 0 178.5 69t62.5 202v1040h180v-1041q0 -206 -112 -321t-308 -115q-121 0 -214 46.5t-145.5 130t-52.5 194.5z" />
    <glyph glyph-name="ij" unicode="&#x133;" horiz-adv-x="1008" 
d="M166 0v1078h172v-1078h-172zM252 1286q-49 0 -84.5 35.5t-35.5 84.5q0 50 35.5 85t84.5 35q50 0 85 -35t35 -85q0 -49 -35 -84.5t-85 -35.5zM842 1078v-1131q0 -166 -80 -241.5t-250 -75.5h-30v147h26q92 0 127 39t35 128v1134h172zM758 1286q-49 0 -84.5 35.5
t-35.5 84.5q0 50 35.5 85t84.5 35q50 0 85 -35t35 -85q0 -49 -35 -84.5t-85 -35.5z" />
    <glyph glyph-name="Jcircumflex" unicode="&#x134;" horiz-adv-x="1102" 
d="M86 337h179q3 -91 66.5 -148t165.5 -57q116 0 178.5 69t62.5 202v1040h180v-1041q0 -206 -112 -321t-308 -115q-121 0 -214 46.5t-145.5 130t-52.5 194.5zM746 1873h164l300 -298h-202l-172 177h-16l-172 -177h-202z" />
    <glyph glyph-name="jcircumflex" unicode="&#x135;" horiz-adv-x="504" 
d="M338 1078v-1131q0 -166 -80 -241.5t-250 -75.5h-30v147h26q92 0 127 39t35 128v1134h172zM355 1568l242 -340h-188l-147 227h-16l-147 -227h-188l242 340h202z" />
    <glyph glyph-name="uni0136" unicode="&#x136;" horiz-adv-x="1349" 
d="M364 0h-180v1443h180v-701h16l632 701h226l-577 -623l630 -820h-233l-521 695l-173 -191v-504zM607 -494h-127l82 377h182z" />
    <glyph glyph-name="uni0137" unicode="&#x137;" horiz-adv-x="1112" 
d="M360 607l468 471h211l-464 -462l495 -616h-219l-404 505l-103 -96v-409h-172v1506h172v-899h16zM557 -494h-127l82 377h182z" />
    <glyph glyph-name="uni043A" unicode="&#x43a;" horiz-adv-x="1113" 
d="M400 491h-57v-491h-172v1078h172v-451h57l417 451h209l-484 -508l503 -570h-223z" />
    <glyph glyph-name="uni043A" unicode="&#x138;" horiz-adv-x="1113" 
d="M400 491h-57v-491h-172v1078h172v-451h57l417 451h209l-484 -508l503 -570h-223z" />
    <glyph glyph-name="Lacute" unicode="&#x139;" horiz-adv-x="1163" 
d="M1060 162v-162h-876v1443h180v-1281h696zM357 1575h-152l177 298h216z" />
    <glyph glyph-name="lacute" unicode="&#x13a;" horiz-adv-x="516" 
d="M172 0v1506h172v-1506h-172zM341 1638h-152l177 298h216z" />
    <glyph glyph-name="uni013B" unicode="&#x13b;" horiz-adv-x="1163" 
d="M1060 162v-162h-876v1443h180v-1281h696zM576 -494h-127l82 377h182z" />
    <glyph glyph-name="uni013C" unicode="&#x13c;" horiz-adv-x="516" 
d="M172 0v1506h172v-1506h-172zM212 -494h-127l82 377h182z" />
    <glyph glyph-name="Lcaron" unicode="&#x13d;" horiz-adv-x="1163" 
d="M646 1568h173l-53 -520h-120v520zM1060 162v-162h-876v1443h180v-1281h696z" />
    <glyph glyph-name="lcaron" unicode="&#x13e;" horiz-adv-x="653" 
d="M495 1568h178l-58 -490h-120v490zM172 0v1506h172v-1506h-172z" />
    <glyph glyph-name="Ldot" unicode="&#x13f;" horiz-adv-x="1163" 
d="M1060 162v-162h-876v1443h180v-1281h696zM752 592q-53 0 -91.5 38.5t-38.5 91.5q0 54 38.5 92t91.5 38q54 0 92 -38t38 -92q0 -53 -38 -91.5t-92 -38.5z" />
    <glyph glyph-name="ldot" unicode="&#x140;" horiz-adv-x="776" 
d="M172 0v1506h172v-1506h-172zM646 571q-53 0 -91.5 38.5t-38.5 91.5q0 54 38.5 92t91.5 38q54 0 92 -38t38 -92q0 -53 -38 -91.5t-92 -38.5z" />
    <glyph glyph-name="Lslash" unicode="&#x141;" horiz-adv-x="1163" 
d="M1060 162v-162h-876v714l-166 -77v142l166 77v587h180v-503l288 134v-142l-288 -134v-636h696z" />
    <glyph glyph-name="lslash" unicode="&#x142;" horiz-adv-x="516" 
d="M172 0v709l-128 -63v144l128 63v653h172v-570l128 63v-144l-128 -63v-792h-172z" />
    <glyph glyph-name="Nacute" unicode="&#x143;" horiz-adv-x="1520" 
d="M362 0h-178v1443h175l783 -1123h16v1123h178v-1443h-175l-783 1119h-16v-1119zM843 1575h-152l177 298h216z" />
    <glyph glyph-name="nacute" unicode="&#x144;" horiz-adv-x="1195" 
d="M162 0v1078h164v-170h16q41 89 120.5 139t203.5 50q182 0 279.5 -103.5t97.5 -295.5v-698h-172v656q0 286 -254 286q-129 0 -206 -81t-77 -223v-638h-172zM681 1228h-152l177 340h206z" />
    <glyph glyph-name="uni0145" unicode="&#x145;" horiz-adv-x="1520" 
d="M362 0h-178v1443h175l783 -1123h16v1123h178v-1443h-175l-783 1119h-16v-1119zM714 -494h-127l82 377h182z" />
    <glyph glyph-name="uni0146" unicode="&#x146;" horiz-adv-x="1195" 
d="M162 0v1078h164v-170h16q41 89 120.5 139t203.5 50q182 0 279.5 -103.5t97.5 -295.5v-698h-172v656q0 286 -254 286q-129 0 -206 -81t-77 -223v-638h-172zM557 -494h-127l82 377h182z" />
    <glyph glyph-name="Ncaron" unicode="&#x147;" horiz-adv-x="1520" 
d="M362 0h-178v1443h175l783 -1123h16v1123h178v-1443h-175l-783 1119h-16v-1119zM842 1575h-164l-300 298h202l172 -177h16l172 177h202z" />
    <glyph glyph-name="ncaron" unicode="&#x148;" horiz-adv-x="1195" 
d="M162 0v1078h164v-170h16q41 89 120.5 139t203.5 50q182 0 279.5 -103.5t97.5 -295.5v-698h-172v656q0 286 -254 286q-129 0 -206 -81t-77 -223v-638h-172zM502 1228l-242 340h188l147 -227h16l147 227h188l-242 -340h-202z" />
    <glyph glyph-name="eng" unicode="&#x14b;" horiz-adv-x="1195" 
d="M162 0v1078h164v-170h16q41 89 120.5 139t203.5 50q182 0 279.5 -103.5t97.5 -295.5v-807q0 -108 -39 -164t-97.5 -76.5t-117.5 -20.5q-46 0 -85.5 11t-61.5 23v139q15 -8 41.5 -15t55.5 -7q48 0 90 24t42 110v741q0 286 -254 286q-129 0 -206 -81t-77 -223v-638h-172z
" />
    <glyph glyph-name="Omacron" unicode="&#x14c;" horiz-adv-x="1580" 
d="M790 1477q205 0 353.5 -92.5t228.5 -261.5t80 -401q0 -230 -79.5 -400t-228 -263t-354.5 -93q-207 0 -355 92.5t-227.5 262.5t-79.5 401q0 232 80.5 401.5t229 261.5t352.5 92zM790 1311q-147 0 -254 -72t-165 -204t-58 -313q0 -179 57 -311.5t163.5 -205.5t256.5 -73
q148 0 255 73t164.5 205.5t57.5 311.5q0 181 -58 313t-164.5 204t-254.5 72zM1117 1817v-136h-654v136h654z" />
    <glyph glyph-name="omacron" unicode="&#x14d;" horiz-adv-x="1210" 
d="M605 -19q-230 0 -363.5 149.5t-133.5 408.5q0 260 133.5 409t363.5 149t363.5 -149t133.5 -409q0 -259 -133.5 -408.5t-363.5 -149.5zM605 136q153 0 236 106t83 297q0 192 -83 297.5t-236 105.5t-236 -105.5t-83 -297.5q0 -191 83 -297t236 -106zM932 1472v-136h-654
v136h654z" />
    <glyph glyph-name="Obreve" unicode="&#x14e;" horiz-adv-x="1580" 
d="M790 1477q205 0 353.5 -92.5t228.5 -261.5t80 -401q0 -230 -79.5 -400t-228 -263t-354.5 -93q-207 0 -355 92.5t-227.5 262.5t-79.5 401q0 232 80.5 401.5t229 261.5t352.5 92zM790 1311q-147 0 -254 -72t-165 -204t-58 -313q0 -179 57 -311.5t163.5 -205.5t256.5 -73
q148 0 255 73t164.5 205.5t57.5 311.5q0 181 -58 313t-164.5 204t-254.5 72zM436 1873h154q0 -79 51.5 -126t148.5 -47q98 0 149 47t51 126h154q0 -134 -92 -216t-262 -82q-169 0 -261.5 82t-92.5 216z" />
    <glyph glyph-name="obreve" unicode="&#x14f;" horiz-adv-x="1210" 
d="M605 -19q-230 0 -363.5 149.5t-133.5 408.5q0 260 133.5 409t363.5 149t363.5 -149t133.5 -409q0 -259 -133.5 -408.5t-363.5 -149.5zM605 136q153 0 236 106t83 297q0 192 -83 297.5t-236 105.5t-236 -105.5t-83 -297.5q0 -191 83 -297t236 -106zM256 1568h154
q0 -94 46.5 -153t148.5 -59t148.5 59t46.5 153h154q0 -150 -89 -245t-260 -95t-260 95t-89 245z" />
    <glyph glyph-name="Ohungarumlaut" unicode="&#x150;" horiz-adv-x="1580" 
d="M790 1477q205 0 353.5 -92.5t228.5 -261.5t80 -401q0 -230 -79.5 -400t-228 -263t-354.5 -93q-207 0 -355 92.5t-227.5 262.5t-79.5 401q0 232 80.5 401.5t229 261.5t352.5 92zM790 1311q-147 0 -254 -72t-165 -204t-58 -313q0 -179 57 -311.5t163.5 -205.5t256.5 -73
q148 0 255 73t164.5 205.5t57.5 311.5q0 181 -58 313t-164.5 204t-254.5 72zM540 1575l126 298h191l-175 -298h-142zM871 1575l166 298h206l-230 -298h-142z" />
    <glyph glyph-name="ohungarumlaut" unicode="&#x151;" horiz-adv-x="1210" 
d="M605 -19q-230 0 -363.5 149.5t-133.5 408.5q0 260 133.5 409t363.5 149t363.5 -149t133.5 -409q0 -259 -133.5 -408.5t-363.5 -149.5zM605 136q153 0 236 106t83 297q0 192 -83 297.5t-236 105.5t-236 -105.5t-83 -297.5q0 -191 83 -297t236 -106zM372 1228l111 340h199
l-177 -340h-133zM680 1228l177 340h206l-241 -340h-142z" />
    <glyph glyph-name="OE" unicode="&#x152;" horiz-adv-x="2325" 
d="M1289 0v247h-16q-44 -84 -120 -147t-172 -98.5t-200 -35.5q-201 0 -347.5 92t-226 262t-79.5 402q0 231 80 400.5t226.5 262t346.5 92.5q102 0 198 -34t173 -95t121 -142h16v237h894v-162h-732v-463h695v-160h-695v-496h732v-162h-894zM801 1311q-150 0 -259.5 -71.5
t-169 -203.5t-59.5 -314q0 -274 130.5 -432t357.5 -158q218 0 342.5 158t124.5 432q0 275 -124.5 432t-342.5 157z" />
    <glyph glyph-name="oe" unicode="&#x153;" horiz-adv-x="1987" 
d="M1411 -19q-134 0 -241.5 62.5t-148.5 165.5h-16q-42 -103 -151.5 -165.5t-248.5 -62.5q-231 0 -364 149.5t-133 408.5q0 260 133 409t364 149q135 0 241 -61t160 -171h16q54 110 157 171t232 61q218 0 343 -144.5t125 -396.5v-66h-775v-8q7 -160 91 -254t220 -94
q210 0 278 145h172q-40 -140 -159.5 -219t-294.5 -79zM1698 629q-3 143 -82 230t-207 87t-211.5 -86.5t-93.5 -230.5h594zM286 539q0 -192 83.5 -297.5t235.5 -105.5t235.5 105.5t83.5 297.5q0 193 -83.5 298t-235.5 105t-235.5 -105t-83.5 -298z" />
    <glyph glyph-name="Racute" unicode="&#x154;" horiz-adv-x="1338" 
d="M364 571v-571h-180v1443h551q139 0 242.5 -53.5t160.5 -150t57 -226.5q0 -151 -77 -261t-213 -153l334 -599h-211l-309 571h-355zM364 1283v-552h355q139 0 214.5 71.5t75.5 204.5q0 130 -79 203t-219 73h-347zM692 1575h-152l177 298h216z" />
    <glyph glyph-name="racute" unicode="&#x155;" horiz-adv-x="780" 
d="M162 0v1078h164v-160h16q24 79 108 129t191 50q49 0 86 -5v-172q-10 3 -47 6.5t-63 3.5q-123 0 -203 -74t-80 -188v-668h-172zM456 1228h-152l177 340h206z" />
    <glyph glyph-name="uni0156" unicode="&#x156;" horiz-adv-x="1338" 
d="M364 571v-571h-180v1443h551q139 0 242.5 -53.5t160.5 -150t57 -226.5q0 -151 -77 -261t-213 -153l334 -599h-211l-309 571h-355zM364 1283v-552h355q139 0 214.5 71.5t75.5 204.5q0 130 -79 203t-219 73h-347zM563 -494h-127l82 377h182z" />
    <glyph glyph-name="uni0157" unicode="&#x157;" horiz-adv-x="780" 
d="M162 0v1078h164v-160h16q24 79 108 129t191 50q49 0 86 -5v-172q-10 3 -47 6.5t-63 3.5q-123 0 -203 -74t-80 -188v-668h-172zM202 -494h-127l82 377h182z" />
    <glyph glyph-name="Rcaron" unicode="&#x158;" horiz-adv-x="1338" 
d="M364 571v-571h-180v1443h551q139 0 242.5 -53.5t160.5 -150t57 -226.5q0 -151 -77 -261t-213 -153l334 -599h-211l-309 571h-355zM364 1283v-552h355q139 0 214.5 71.5t75.5 204.5q0 130 -79 203t-219 73h-347zM691 1575h-164l-300 298h202l172 -177h16l172 177h202z" />
    <glyph glyph-name="rcaron" unicode="&#x159;" horiz-adv-x="780" 
d="M162 0v1078h164v-160h16q24 79 108 129t191 50q49 0 86 -5v-172q-10 3 -47 6.5t-63 3.5q-123 0 -203 -74t-80 -188v-668h-172zM277 1228l-242 340h188l147 -227h16l147 227h188l-242 -340h-202z" />
    <glyph glyph-name="Sacute" unicode="&#x15a;" horiz-adv-x="1305" 
d="M115 377h182q17 -113 117 -180t254 -67q97 0 173 32t120 88.5t44 127.5q0 92 -70 153t-219 98l-185 48q-196 50 -285 142.5t-89 246.5q0 123 64 215.5t179 144t267 51.5q140 0 250.5 -51t177.5 -141t74 -207h-181q-19 111 -105.5 173.5t-221.5 62.5q-144 0 -231.5 -66
t-87.5 -176q0 -85 64.5 -138t213.5 -91l151 -40q224 -56 321.5 -150t97.5 -253q0 -132 -66 -229.5t-187 -151t-286 -53.5q-153 0 -270.5 51t-186.5 143.5t-79 216.5zM750 1575h-152l177 298h216z" />
    <glyph glyph-name="sacute" unicode="&#x15b;" horiz-adv-x="1072" 
d="M137 783q0 90 53 161t144 112t205 41q170 0 279.5 -78t126.5 -211h-170q-17 65 -78 104t-159 39q-96 0 -162 -44.5t-66 -116.5q0 -105 187 -151l166 -40q152 -37 226.5 -106.5t74.5 -185.5q0 -96 -57 -169.5t-154.5 -115t-220.5 -41.5q-180 0 -295 80t-129 214h177
q22 -68 86 -108.5t167 -40.5q109 0 179 47t70 121q0 110 -171 152l-185 45q-151 37 -222.5 106t-71.5 186zM617 1228h-152l177 340h206z" />
    <glyph glyph-name="Scircumflex" unicode="&#x15c;" horiz-adv-x="1305" 
d="M115 377h182q17 -113 117 -180t254 -67q97 0 173 32t120 88.5t44 127.5q0 92 -70 153t-219 98l-185 48q-196 50 -285 142.5t-89 246.5q0 123 64 215.5t179 144t267 51.5q140 0 250.5 -51t177.5 -141t74 -207h-181q-19 111 -105.5 173.5t-221.5 62.5q-144 0 -231.5 -66
t-87.5 -176q0 -85 64.5 -138t213.5 -91l151 -40q224 -56 321.5 -150t97.5 -253q0 -132 -66 -229.5t-187 -151t-286 -53.5q-153 0 -270.5 51t-186.5 143.5t-79 216.5zM585 1873h164l300 -298h-202l-172 177h-16l-172 -177h-202z" />
    <glyph glyph-name="scircumflex" unicode="&#x15d;" horiz-adv-x="1072" 
d="M137 783q0 90 53 161t144 112t205 41q170 0 279.5 -78t126.5 -211h-170q-17 65 -78 104t-159 39q-96 0 -162 -44.5t-66 -116.5q0 -105 187 -151l166 -40q152 -37 226.5 -106.5t74.5 -185.5q0 -96 -57 -169.5t-154.5 -115t-220.5 -41.5q-180 0 -295 80t-129 214h177
q22 -68 86 -108.5t167 -40.5q109 0 179 47t70 121q0 110 -171 152l-185 45q-151 37 -222.5 106t-71.5 186zM640 1568l242 -340h-188l-147 227h-16l-147 -227h-188l242 340h202z" />
    <glyph glyph-name="Scedilla" unicode="&#x15e;" horiz-adv-x="1305" 
d="M115 377h182q17 -113 117 -180t254 -67q97 0 173 32t120 88.5t44 127.5q0 92 -70 153t-219 98l-185 48q-196 50 -285 142.5t-89 246.5q0 123 64 215.5t179 144t267 51.5q140 0 250.5 -51t177.5 -141t74 -207h-181q-19 111 -105.5 173.5t-221.5 62.5q-144 0 -231.5 -66
t-87.5 -176q0 -85 64.5 -138t213.5 -91l151 -40q224 -56 321.5 -150t97.5 -253q0 -132 -66 -229.5t-187 -151t-286 -53.5q-153 0 -270.5 51t-186.5 143.5t-79 216.5zM521 -240v90l97 172h131v-22l-78 -132q102 0 162.5 -43t60.5 -120q0 -70 -36.5 -112.5t-95.5 -62
t-127 -19.5q-35 0 -71.5 5t-73.5 13v116q12 -3 44 -8t69 -5q47 0 87.5 14.5t40.5 52.5q0 36 -37.5 48.5t-111.5 12.5h-61z" />
    <glyph glyph-name="scedilla" unicode="&#x15f;" horiz-adv-x="1072" 
d="M137 783q0 90 53 161t144 112t205 41q170 0 279.5 -78t126.5 -211h-170q-17 65 -78 104t-159 39q-96 0 -162 -44.5t-66 -116.5q0 -105 187 -151l166 -40q152 -37 226.5 -106.5t74.5 -185.5q0 -96 -57 -169.5t-154.5 -115t-220.5 -41.5q-180 0 -295 80t-129 214h177
q22 -68 86 -108.5t167 -40.5q109 0 179 47t70 121q0 110 -171 152l-185 45q-151 37 -222.5 106t-71.5 186zM402 -240v90l97 172h131v-22l-78 -132q102 0 162.5 -43t60.5 -120q0 -70 -36.5 -112.5t-95.5 -62t-127 -19.5q-35 0 -71.5 5t-73.5 13v116q12 -3 44 -8t69 -5
q47 0 87.5 14.5t40.5 52.5q0 36 -37.5 48.5t-111.5 12.5h-61z" />
    <glyph glyph-name="Scaron" unicode="&#x160;" horiz-adv-x="1305" 
d="M115 377h182q17 -113 117 -180t254 -67q97 0 173 32t120 88.5t44 127.5q0 92 -70 153t-219 98l-185 48q-196 50 -285 142.5t-89 246.5q0 123 64 215.5t179 144t267 51.5q140 0 250.5 -51t177.5 -141t74 -207h-181q-19 111 -105.5 173.5t-221.5 62.5q-144 0 -231.5 -66
t-87.5 -176q0 -85 64.5 -138t213.5 -91l151 -40q224 -56 321.5 -150t97.5 -253q0 -132 -66 -229.5t-187 -151t-286 -53.5q-153 0 -270.5 51t-186.5 143.5t-79 216.5zM749 1575h-164l-300 298h202l172 -177h16l172 177h202z" />
    <glyph glyph-name="scaron" unicode="&#x161;" horiz-adv-x="1072" 
d="M137 783q0 90 53 161t144 112t205 41q170 0 279.5 -78t126.5 -211h-170q-17 65 -78 104t-159 39q-96 0 -162 -44.5t-66 -116.5q0 -105 187 -151l166 -40q152 -37 226.5 -106.5t74.5 -185.5q0 -96 -57 -169.5t-154.5 -115t-220.5 -41.5q-180 0 -295 80t-129 214h177
q22 -68 86 -108.5t167 -40.5q109 0 179 47t70 121q0 110 -171 152l-185 45q-151 37 -222.5 106t-71.5 186zM438 1228l-242 340h188l147 -227h16l147 227h188l-242 -340h-202z" />
    <glyph glyph-name="uni0162" unicode="&#x162;" horiz-adv-x="1298" 
d="M511 -240v90l85 150h-37v1281h-465v162h1110v-162h-465v-1281l-78 -132q102 0 162.5 -43t60.5 -120q0 -70 -36.5 -112.5t-95.5 -62t-127 -19.5q-35 0 -71.5 5t-73.5 13v116q12 -3 44 -8t69 -5q47 0 87.5 14.5t40.5 52.5q0 36 -37.5 48.5t-111.5 12.5h-61z" />
    <glyph glyph-name="uni0163" unicode="&#x163;" horiz-adv-x="744" 
d="M234 1357h172v-279h240v-144h-240v-610q0 -95 38 -138t122 -43q23 0 39.5 1t40.5 3v-145q-25 -4 -50 -7t-51 -3q-166 0 -238.5 67t-72.5 221v654h-174v144h174v279zM286 -240v90l97 172h131v-22l-78 -132q102 0 162.5 -43t60.5 -120q0 -70 -36.5 -112.5t-95.5 -62
t-127 -19.5q-35 0 -71.5 5t-73.5 13v116q12 -3 44 -8t69 -5q47 0 87.5 14.5t40.5 52.5q0 36 -37.5 48.5t-111.5 12.5h-61z" />
    <glyph glyph-name="Tcaron" unicode="&#x164;" horiz-adv-x="1298" 
d="M739 0h-180v1281h-465v162h1110v-162h-465v-1281zM731 1575h-164l-300 298h202l172 -177h16l172 177h202z" />
    <glyph glyph-name="tcaron" unicode="&#x165;" horiz-adv-x="744" 
d="M539 1720h178l-58 -490h-120v490zM234 1357h172v-279h240v-144h-240v-610q0 -95 38 -138t122 -43q23 0 39.5 1t40.5 3v-145q-25 -4 -50 -7t-51 -3q-166 0 -238.5 67t-72.5 221v654h-174v144h174v279z" />
    <glyph glyph-name="Tbar" unicode="&#x166;" horiz-adv-x="1298" 
d="M233 641v162h326v478h-465v162h1110v-162h-465v-478h326v-162h-326v-641h-180v641h-326z" />
    <glyph glyph-name="tbar" unicode="&#x167;" horiz-adv-x="744" 
d="M56 509v144h178v281h-174v144h174v279h172v-279h240v-144h-240v-281h236v-144h-236v-185q0 -95 38 -138t122 -43q23 0 39.5 1t40.5 3v-145q-25 -4 -50 -7t-51 -3q-166 0 -238.5 67t-72.5 221v229h-178z" />
    <glyph glyph-name="Utilde" unicode="&#x168;" horiz-adv-x="1510" 
d="M362 1443v-935q0 -163 103 -269.5t290 -106.5q188 0 290.5 106.5t102.5 269.5v935h180v-947q0 -154 -68.5 -273.5t-197 -188t-307.5 -68.5t-307.5 68.5t-197 188t-68.5 273.5v947h180zM879 1580q-61 0 -96.5 22.5t-58.5 52.5t-45 52.5t-56 22.5q-36 0 -56 -34.5
t-20 -119.5h-142q0 137 57.5 212.5t163.5 75.5q60 0 96.5 -23.5t61 -55t47.5 -55t56 -23.5q41 0 58.5 37.5t17.5 122.5h142q0 -136 -58.5 -211.5t-167.5 -75.5z" />
    <glyph glyph-name="utilde" unicode="&#x169;" horiz-adv-x="1196" 
d="M1034 1078v-1078h-164v169h-16q-40 -90 -125 -139t-209 -49q-181 0 -274.5 104t-93.5 295v698h172v-656q0 -145 57.5 -214.5t186.5 -69.5q143 0 218.5 80t75.5 222v638h172zM717 1235q-61 0 -96.5 22.5t-58.5 52.5t-45 52.5t-56 22.5q-36 0 -56 -34.5t-20 -119.5h-142
q0 137 57.5 212.5t163.5 75.5q60 0 96.5 -23.5t61 -55t47.5 -55t56 -23.5q41 0 58.5 37.5t17.5 122.5h142q0 -136 -58.5 -211.5t-167.5 -75.5z" />
    <glyph glyph-name="Umacron" unicode="&#x16a;" horiz-adv-x="1510" 
d="M362 1443v-935q0 -163 103 -269.5t290 -106.5q188 0 290.5 106.5t102.5 269.5v935h180v-947q0 -154 -68.5 -273.5t-197 -188t-307.5 -68.5t-307.5 68.5t-197 188t-68.5 273.5v947h180zM1082 1817v-136h-654v136h654z" />
    <glyph glyph-name="umacron" unicode="&#x16b;" horiz-adv-x="1196" 
d="M1034 1078v-1078h-164v169h-16q-40 -90 -125 -139t-209 -49q-181 0 -274.5 104t-93.5 295v698h172v-656q0 -145 57.5 -214.5t186.5 -69.5q143 0 218.5 80t75.5 222v638h172zM920 1472v-136h-654v136h654z" />
    <glyph glyph-name="Ubreve" unicode="&#x16c;" horiz-adv-x="1510" 
d="M362 1443v-935q0 -163 103 -269.5t290 -106.5q188 0 290.5 106.5t102.5 269.5v935h180v-947q0 -154 -68.5 -273.5t-197 -188t-307.5 -68.5t-307.5 68.5t-197 188t-68.5 273.5v947h180zM401 1873h154q0 -79 51.5 -126t148.5 -47q98 0 149 47t51 126h154q0 -134 -92 -216
t-262 -82q-169 0 -261.5 82t-92.5 216z" />
    <glyph glyph-name="ubreve" unicode="&#x16d;" horiz-adv-x="1196" 
d="M1034 1078v-1078h-164v169h-16q-40 -90 -125 -139t-209 -49q-181 0 -274.5 104t-93.5 295v698h172v-656q0 -145 57.5 -214.5t186.5 -69.5q143 0 218.5 80t75.5 222v638h172zM244 1568h154q0 -94 46.5 -153t148.5 -59t148.5 59t46.5 153h154q0 -150 -89 -245t-260 -95
t-260 95t-89 245z" />
    <glyph glyph-name="Uring" unicode="&#x16e;" horiz-adv-x="1510" 
d="M362 1443v-935q0 -163 103 -269.5t290 -106.5q188 0 290.5 106.5t102.5 269.5v935h180v-947q0 -154 -68.5 -273.5t-197 -188t-307.5 -68.5t-307.5 68.5t-197 188t-68.5 273.5v947h180zM755 1551q-82 0 -140.5 57t-58.5 140t58.5 140t140.5 57q83 0 141 -57t58 -140
t-58 -140t-141 -57zM755 1643q46 0 75.5 30t29.5 75q0 46 -29.5 75.5t-75.5 29.5t-75.5 -29.5t-29.5 -75.5q0 -45 29.5 -75t75.5 -30z" />
    <glyph glyph-name="uring" unicode="&#x16f;" horiz-adv-x="1196" 
d="M1034 1078v-1078h-164v169h-16q-40 -90 -125 -139t-209 -49q-181 0 -274.5 104t-93.5 295v698h172v-656q0 -145 57.5 -214.5t186.5 -69.5q143 0 218.5 80t75.5 222v638h172zM593 1228q-96 0 -164 66t-68 163t68 163t164 66t164 -66t68 -163t-68 -163t-164 -66zM593 1334
q53 0 87.5 35.5t34.5 87.5q0 53 -34.5 88t-87.5 35q-52 0 -87 -35t-35 -88q0 -52 35 -87.5t87 -35.5z" />
    <glyph glyph-name="Uhungarumlaut" unicode="&#x170;" horiz-adv-x="1510" 
d="M362 1443v-935q0 -163 103 -269.5t290 -106.5q188 0 290.5 106.5t102.5 269.5v935h180v-947q0 -154 -68.5 -273.5t-197 -188t-307.5 -68.5t-307.5 68.5t-197 188t-68.5 273.5v947h180zM505 1575l126 298h191l-175 -298h-142zM836 1575l166 298h206l-230 -298h-142z" />
    <glyph glyph-name="uhungarumlaut" unicode="&#x171;" horiz-adv-x="1196" 
d="M1034 1078v-1078h-164v169h-16q-40 -90 -125 -139t-209 -49q-181 0 -274.5 104t-93.5 295v698h172v-656q0 -145 57.5 -214.5t186.5 -69.5q143 0 218.5 80t75.5 222v638h172zM360 1228l111 340h199l-177 -340h-133zM668 1228l177 340h206l-241 -340h-142z" />
    <glyph glyph-name="Uogonek" unicode="&#x172;" horiz-adv-x="1510" 
d="M1005 -435q-59 0 -113.5 20t-89 62.5t-34.5 107.5q0 110 129 224q-68 -13 -142 -13q-179 0 -307.5 68.5t-197 188t-68.5 273.5v947h180v-935q0 -163 103 -269.5t290 -106.5q188 0 290.5 106.5t102.5 269.5v935h180v-947q0 -229 -145 -374q-52 -54 -109.5 -106t-97 -104.5
t-39.5 -109.5q0 -14 6.5 -36.5t29 -40t69.5 -17.5q35 0 76 11v-135q-55 -19 -113 -19z" />
    <glyph glyph-name="uogonek" unicode="&#x173;" horiz-adv-x="1196" 
d="M930 -435q-89 0 -160.5 47t-71.5 145q0 66 41 133t131 130v149h-16q-40 -90 -125 -139t-209 -49q-181 0 -274.5 104t-93.5 295v698h172v-656q0 -145 57.5 -214.5t186.5 -69.5q143 0 218.5 80t75.5 222v638h172v-1078q-63 -38 -115 -87t-52 -110q0 -44 28.5 -69t78.5 -25
q33 0 69 10v-135q-55 -19 -113 -19z" />
    <glyph glyph-name="Wcircumflex" unicode="&#x174;" horiz-adv-x="1982" 
d="M985 1139l-332 -1139h-170l-393 1443h188l287 -1173h12l323 1173h182l323 -1173h12l287 1173h188l-393 -1443h-170l-332 1139h-12zM909 1873h164l300 -298h-202l-172 177h-16l-172 -177h-202z" />
    <glyph glyph-name="wcircumflex" unicode="&#x175;" horiz-adv-x="1586" 
d="M1518 1078l-302 -1078h-175l-241 834h-16l-240 -834h-174l-302 1078h174l212 -862h16l241 862h165l241 -862h16l212 862h173zM894 1568l242 -340h-188l-147 227h-16l-147 -227h-188l242 340h202z" />
    <glyph glyph-name="Ycircumflex" unicode="&#x176;" horiz-adv-x="1344" 
d="M762 0h-180v621l-512 822h205l389 -641h16l389 641h205l-512 -822v-621zM590 1873h164l300 -298h-202l-172 177h-16l-172 -177h-202z" />
    <glyph glyph-name="ycircumflex" unicode="&#x177;" horiz-adv-x="1112" 
d="M254 -390q-41 0 -77 6v147q16 -3 35 -4t37 -1q74 0 119 40t79 137l20 64l-399 1079h186l296 -887h16l295 887h183l-421 -1144q-46 -125 -94.5 -195.5t-113.5 -99.5t-161 -29zM652 1568l242 -340h-188l-147 227h-16l-147 -227h-188l242 340h202z" />
    <glyph glyph-name="Ydieresis" unicode="&#x178;" horiz-adv-x="1344" 
d="M762 0h-180v621l-512 822h205l389 -641h16l389 641h205l-512 -822v-621zM455 1631q-49 0 -84.5 35.5t-35.5 84.5q0 50 35.5 85t84.5 35q50 0 85 -35t35 -85q0 -49 -35 -84.5t-85 -35.5zM889 1631q-49 0 -84.5 35.5t-35.5 84.5q0 50 35.5 85t84.5 35q50 0 85 -35t35 -85
q0 -49 -35 -84.5t-85 -35.5z" />
    <glyph glyph-name="Zacute" unicode="&#x179;" horiz-adv-x="1355" 
d="M144 0v128l817 1137v16h-789v162h1022v-128l-813 -1137v-16h830v-162h-1067zM761 1575h-152l177 298h216z" />
    <glyph glyph-name="zacute" unicode="&#x17a;" horiz-adv-x="1104" 
d="M137 0v126l622 792v16h-621v144h826v-129l-619 -789v-16h622v-144h-830zM623 1228h-152l177 340h206z" />
    <glyph glyph-name="Zdotaccent" unicode="&#x17b;" horiz-adv-x="1355" 
d="M144 0v128l817 1137v16h-789v162h1022v-128l-813 -1137v-16h830v-162h-1067zM678 1631q-49 0 -84.5 35.5t-35.5 84.5q0 50 35.5 85t84.5 35q50 0 85 -35t35 -85q0 -49 -35 -84.5t-85 -35.5z" />
    <glyph glyph-name="zdotaccent" unicode="&#x17c;" horiz-adv-x="1104" 
d="M137 0v126l622 792v16h-621v144h826v-129l-619 -789v-16h622v-144h-830zM545 1286q-49 0 -84.5 35.5t-35.5 84.5q0 50 35.5 85t84.5 35q50 0 85 -35t35 -85q0 -49 -35 -84.5t-85 -35.5z" />
    <glyph glyph-name="Zcaron" unicode="&#x17d;" horiz-adv-x="1355" 
d="M144 0v128l817 1137v16h-789v162h1022v-128l-813 -1137v-16h830v-162h-1067zM760 1575h-164l-300 298h202l172 -177h16l172 177h202z" />
    <glyph glyph-name="zcaron" unicode="&#x17e;" horiz-adv-x="1104" 
d="M137 0v126l622 792v16h-621v144h826v-129l-619 -789v-16h622v-144h-830zM444 1228l-242 340h188l147 -227h16l147 227h188l-242 -340h-202z" />
    <glyph glyph-name="longs" unicode="&#x17f;" horiz-adv-x="623" 
d="M172 0v1198q0 318 313 318q63 0 116 -10v-140q-30 5 -81 5q-93 0 -134.5 -44.5t-41.5 -133.5v-1193h-172z" />
    <glyph glyph-name="uni018E" unicode="&#x18e;" horiz-adv-x="1220" 
d="M142 162h714v496h-677v160h677v463h-714v162h894v-1443h-894v162z" />
    <glyph glyph-name="uni04D8" unicode="&#x4d8;" horiz-adv-x="1506" 
d="M738 -34q-189 0 -327 86.5t-214 246.5t-79 380v79h1057v27q1 155 -57.5 273.5t-162.5 185.5t-241 67q-284 0 -389 -232h-185q65 188 217.5 293t360.5 105q199 0 345 -92.5t225.5 -262.5t79.5 -402q0 -226 -79 -395.5t-220.5 -264t-330.5 -94.5zM742 132q174 0 290 126.5
t139 340.5h-855q17 -220 129.5 -343.5t296.5 -123.5z" />
    <glyph glyph-name="uni04D8" unicode="&#x18f;" horiz-adv-x="1506" 
d="M738 -34q-189 0 -327 86.5t-214 246.5t-79 380v79h1057v27q1 155 -57.5 273.5t-162.5 185.5t-241 67q-284 0 -389 -232h-185q65 188 217.5 293t360.5 105q199 0 345 -92.5t225.5 -262.5t79.5 -402q0 -226 -79 -395.5t-220.5 -264t-330.5 -94.5zM742 132q174 0 290 126.5
t139 340.5h-855q17 -220 129.5 -343.5t296.5 -123.5z" />
    <glyph glyph-name="florin" unicode="&#x192;" horiz-adv-x="1328" 
d="M222 820h363l40 281q26 177 130.5 271.5t275.5 94.5q65 0 115.5 -4.5t96.5 -16.5v-157q-42 13 -88 17.5t-102 4.5q-115 0 -177.5 -55.5t-78.5 -165.5l-39 -270h363v-136h-382l-52 -362q-26 -184 -125 -265t-267 -81q-64 0 -111 6t-107 21v167q99 -35 202 -35q98 0 159 45
t77 155l50 349h-343v136z" />
    <glyph glyph-name="Ohorn" unicode="&#x1a0;" horiz-adv-x="1603" 
d="M791 -34q-207 0 -355.5 92.5t-228 262.5t-79.5 401q0 232 81 401.5t229.5 261.5t352.5 92q112 0 208 -20t208 -20q63 0 86 21.5t23 71.5v140h159v-192q0 -82 -54 -126.5t-128 -44.5h-59v-12q65 -45 113.5 -132.5t76 -201.5t27.5 -239q0 -230 -79 -400t-227 -263t-354 -93
zM791 132q148 0 254.5 73t163.5 205.5t57 311.5q0 181 -57.5 313t-163.5 204t-254 72q-147 0 -254 -72t-165.5 -204t-58.5 -313q0 -179 57 -311.5t164 -205.5t257 -73z" />
    <glyph glyph-name="ohorn" unicode="&#x1a1;" horiz-adv-x="1254" 
d="M1102 539q0 -259 -133 -408.5t-364 -149.5t-364 149.5t-133 408.5q0 260 133 409t364 149q64 0 104 -6t77.5 -12.5t91.5 -6.5q65 0 87 21.5t22 71.5v137h159v-189q0 -80 -46 -120t-98 -40h-56v-7q70 -49 113 -155t43 -252zM605 136q152 0 235.5 105.5t83.5 297.5
q0 193 -83.5 298t-235.5 105t-235.5 -105t-83.5 -298q0 -192 83.5 -297.5t235.5 -105.5z" />
    <glyph glyph-name="Uhorn" unicode="&#x1af;" horiz-adv-x="1648" 
d="M755 -34q-172 0 -301 66t-200.5 185t-71.5 279v947h180v-935q0 -172 107 -274t286 -102t286 102t107 274v935h182q91 0 91 88v159h159v-189q0 -93 -56.5 -139.5t-145.5 -46.5h-50v-819q0 -160 -71.5 -279t-200 -185t-301.5 -66z" />
    <glyph glyph-name="uhorn" unicode="&#x1b0;" horiz-adv-x="1316" 
d="M854 169q-40 -90 -125 -139t-209 -49q-181 0 -274.5 104t-93.5 295v698h172v-656q0 -145 57.5 -214.5t186.5 -69.5q143 0 218.5 80t75.5 222v638h144q91 0 91 88v152h159v-182q0 -93 -56.5 -139.5t-145.5 -46.5h-20v-950h-164v169h-16z" />
    <glyph glyph-name="uni01C0" unicode="&#x1c0;" horiz-adv-x="660" 
d="M257 -370v1813h146v-1813h-146z" />
    <glyph glyph-name="uni01C1" unicode="&#x1c1;" horiz-adv-x="1063" 
d="M257 -370v1813h146v-1813h-146zM660 -370v1813h146v-1813h-146z" />
    <glyph glyph-name="uni01C2" unicode="&#x1c2;" horiz-adv-x="900" 
d="M80 569v132h296v245h-296v132h296v365h148v-365h296v-132h-296v-245h296v-132h-296v-939h-148v939h-296z" />
    <glyph glyph-name="uni01C3" unicode="&#x1c3;" horiz-adv-x="637" 
d="M218 1444h200l-17 -964h-166zM319 -18q-61 0 -100 39t-39 100q0 62 39 101t100 39t99.5 -39t38.5 -101q0 -61 -38.5 -100t-99.5 -39z" />
    <glyph glyph-name="uni01C4" unicode="&#x1c4;" horiz-adv-x="2843" 
d="M184 1443h495q214 0 366.5 -85.5t233.5 -247t81 -388.5q0 -341 -179.5 -531.5t-501.5 -190.5h-495v1443zM364 1281v-1119h303q242 0 375.5 147t133.5 411q0 265 -134.5 413t-374.5 148h-303zM1632 0v128l817 1137v16h-789v162h1022v-128l-813 -1137v-16h830v-162h-1067z
M2248 1575h-164l-300 298h202l172 -177h16l172 177h202z" />
    <glyph glyph-name="uni01C5" unicode="&#x1c5;" horiz-adv-x="2592" 
d="M184 1443h495q214 0 366.5 -85.5t233.5 -247t81 -388.5q0 -341 -179.5 -531.5t-501.5 -190.5h-495v1443zM364 1281v-1119h303q242 0 375.5 147t133.5 411q0 265 -134.5 413t-374.5 148h-303zM1625 0v126l622 792v16h-621v144h826v-129l-619 -789v-16h622v-144h-830z
M1932 1228l-242 340h188l147 -227h16l147 227h188l-242 -340h-202z" />
    <glyph glyph-name="uni01C6" unicode="&#x1c6;" horiz-adv-x="2362" 
d="M561 -19q-138 0 -240 69t-157.5 194.5t-55.5 294.5t56 294.5t158 194.5t239 69q113 0 202.5 -50t135.5 -139h15v598h172v-1506h-164v172h-16q-51 -90 -142 -140.5t-203 -50.5zM601 942q-147 0 -231 -107.5t-84 -295.5q0 -189 83.5 -296t231.5 -107q147 0 232 108t85 295
q0 185 -85.5 294t-231.5 109zM1395 0v126l622 792v16h-621v144h826v-129l-619 -789v-16h622v-144h-830zM1702 1228l-242 340h188l147 -227h16l147 227h188l-242 -340h-202z" />
    <glyph glyph-name="uni01C7" unicode="&#x1c7;" horiz-adv-x="2265" 
d="M1060 162v-162h-876v1443h180v-1281h696zM1249 337h179q3 -91 66.5 -148t165.5 -57q116 0 178.5 69t62.5 202v1040h180v-1041q0 -206 -112 -321t-308 -115q-121 0 -214 46.5t-145.5 130t-52.5 194.5z" />
    <glyph glyph-name="uni01C8" unicode="&#x1c8;" horiz-adv-x="1667" 
d="M1060 162v-162h-876v1443h180v-1281h696zM1501 1078v-1131q0 -166 -80 -241.5t-250 -75.5h-30v147h26q92 0 127 39t35 128v1134h172zM1417 1286q-49 0 -84.5 35.5t-35.5 84.5q0 50 35.5 85t84.5 35q50 0 85 -35t35 -85q0 -49 -35 -84.5t-85 -35.5z" />
    <glyph glyph-name="uni01C9" unicode="&#x1c9;" horiz-adv-x="1020" 
d="M172 0v1506h172v-1506h-172zM854 1078v-1131q0 -166 -80 -241.5t-250 -75.5h-30v147h26q92 0 127 39t35 128v1134h172zM770 1286q-49 0 -84.5 35.5t-35.5 84.5q0 50 35.5 85t84.5 35q50 0 85 -35t35 -85q0 -49 -35 -84.5t-85 -35.5z" />
    <glyph glyph-name="uni01CA" unicode="&#x1ca;" horiz-adv-x="2622" 
d="M362 0h-178v1443h175l783 -1123h16v1123h178v-1443h-175l-783 1119h-16v-1119zM1606 337h179q3 -91 66.5 -148t165.5 -57q116 0 178.5 69t62.5 202v1040h180v-1041q0 -206 -112 -321t-308 -115q-121 0 -214 46.5t-145.5 130t-52.5 194.5z" />
    <glyph glyph-name="uni01CB" unicode="&#x1cb;" horiz-adv-x="2024" 
d="M362 0h-178v1443h175l783 -1123h16v1123h178v-1443h-175l-783 1119h-16v-1119zM1858 1078v-1131q0 -166 -80 -241.5t-250 -75.5h-30v147h26q92 0 127 39t35 128v1134h172zM1774 1286q-49 0 -84.5 35.5t-35.5 84.5q0 50 35.5 85t84.5 35q50 0 85 -35t35 -85
q0 -49 -35 -84.5t-85 -35.5z" />
    <glyph glyph-name="uni01CC" unicode="&#x1cc;" horiz-adv-x="1699" 
d="M162 0v1078h164v-170h16q41 89 120.5 139t203.5 50q182 0 279.5 -103.5t97.5 -295.5v-698h-172v656q0 286 -254 286q-129 0 -206 -81t-77 -223v-638h-172zM1533 1078v-1131q0 -166 -80 -241.5t-250 -75.5h-30v147h26q92 0 127 39t35 128v1134h172zM1449 1286
q-49 0 -84.5 35.5t-35.5 84.5q0 50 35.5 85t84.5 35q50 0 85 -35t35 -85q0 -49 -35 -84.5t-85 -35.5z" />
    <glyph glyph-name="uni01CD" unicode="&#x1cd;" horiz-adv-x="1380" 
d="M1122 0l-145 413h-574l-145 -413h-189l532 1443h178l532 -1443h-189zM682 1210l-226 -644h468l-226 644h-16zM772 1575h-164l-300 298h202l172 -177h16l172 177h202z" />
    <glyph glyph-name="uni01CE" unicode="&#x1ce;" horiz-adv-x="1130" 
d="M462 -19q-104 0 -186.5 39t-130 111.5t-47.5 170.5q0 145 102.5 226.5t290.5 92.5l311 19v98q0 206 -244 206q-97 0 -161 -35t-82 -99h-174q17 130 134 208.5t289 78.5q197 0 303.5 -95.5t106.5 -263.5v-738h-164v159h-16q-108 -178 -332 -178zM494 132q89 0 158.5 35.5
t109.5 96.5t40 138v99l-290 -19q-123 -8 -179.5 -51.5t-56.5 -124.5q0 -82 62 -128t156 -46zM463 1228l-242 340h188l147 -227h16l147 227h188l-242 -340h-202z" />
    <glyph glyph-name="uni01CF" unicode="&#x1cf;" horiz-adv-x="548" 
d="M364 0h-180v1443h180v-1443zM356 1575h-164l-300 298h202l172 -177h16l172 177h202z" />
    <glyph glyph-name="uni01D0" unicode="&#x1d0;" horiz-adv-x="504" 
d="M166 0v1078h172v-1078h-172zM151 1228l-242 340h188l147 -227h16l147 227h188l-242 -340h-202z" />
    <glyph glyph-name="uni01D1" unicode="&#x1d1;" horiz-adv-x="1580" 
d="M790 1477q205 0 353.5 -92.5t228.5 -261.5t80 -401q0 -230 -79.5 -400t-228 -263t-354.5 -93q-207 0 -355 92.5t-227.5 262.5t-79.5 401q0 232 80.5 401.5t229 261.5t352.5 92zM790 1311q-147 0 -254 -72t-165 -204t-58 -313q0 -179 57 -311.5t163.5 -205.5t256.5 -73
q148 0 255 73t164.5 205.5t57.5 311.5q0 181 -58 313t-164.5 204t-254.5 72zM872 1575h-164l-300 298h202l172 -177h16l172 177h202z" />
    <glyph glyph-name="uni01D2" unicode="&#x1d2;" horiz-adv-x="1210" 
d="M605 -19q-230 0 -363.5 149.5t-133.5 408.5q0 260 133.5 409t363.5 149t363.5 -149t133.5 -409q0 -259 -133.5 -408.5t-363.5 -149.5zM605 136q153 0 236 106t83 297q0 192 -83 297.5t-236 105.5t-236 -105.5t-83 -297.5q0 -191 83 -297t236 -106zM504 1228l-242 340h188
l147 -227h16l147 227h188l-242 -340h-202z" />
    <glyph glyph-name="uni01D3" unicode="&#x1d3;" horiz-adv-x="1510" 
d="M362 1443v-935q0 -163 103 -269.5t290 -106.5q188 0 290.5 106.5t102.5 269.5v935h180v-947q0 -154 -68.5 -273.5t-197 -188t-307.5 -68.5t-307.5 68.5t-197 188t-68.5 273.5v947h180zM837 1575h-164l-300 298h202l172 -177h16l172 177h202z" />
    <glyph glyph-name="uni01D4" unicode="&#x1d4;" horiz-adv-x="1196" 
d="M1034 1078v-1078h-164v169h-16q-40 -90 -125 -139t-209 -49q-181 0 -274.5 104t-93.5 295v698h172v-656q0 -145 57.5 -214.5t186.5 -69.5q143 0 218.5 80t75.5 222v638h172zM492 1228l-242 340h188l147 -227h16l147 227h188l-242 -340h-202z" />
    <glyph glyph-name="uni01D5" unicode="&#x1d5;" horiz-adv-x="1510" 
d="M362 1443v-935q0 -163 103 -269.5t290 -106.5q188 0 290.5 106.5t102.5 269.5v935h180v-947q0 -154 -68.5 -273.5t-197 -188t-307.5 -68.5t-307.5 68.5t-197 188t-68.5 273.5v947h180zM418 2062h674v-130h-674v130zM553 1809q49 0 83 -34t34 -83t-34 -83t-83 -34t-83 34
t-34 83t34 83t83 34zM957 1809q49 0 83 -34t34 -83t-34 -83t-83 -34t-83 34t-34 83t34 83t83 34z" />
    <glyph glyph-name="uni01D6" unicode="&#x1d6;" horiz-adv-x="1196" 
d="M1034 1078v-1078h-164v169h-16q-40 -90 -125 -139t-209 -49q-181 0 -274.5 104t-93.5 295v698h172v-656q0 -145 57.5 -214.5t186.5 -69.5q143 0 218.5 80t75.5 222v638h172zM920 1756v-136h-654v136h654zM391 1228q-49 0 -83 34t-34 83t34 83t83 34t83 -34t34 -83
t-34 -83t-83 -34zM795 1228q-49 0 -83 34t-34 83t34 83t83 34t83 -34t34 -83t-34 -83t-83 -34z" />
    <glyph glyph-name="uni01D7" unicode="&#x1d7;" horiz-adv-x="1510" 
d="M362 1443v-935q0 -163 103 -269.5t290 -106.5q188 0 290.5 106.5t102.5 269.5v935h180v-947q0 -154 -68.5 -273.5t-197 -188t-307.5 -68.5t-307.5 68.5t-197 188t-68.5 273.5v947h180zM667 1873l230 222h227l-281 -222h-176zM553 1575q-50 0 -85.5 35.5t-35.5 85.5
t35.5 85.5t85.5 35.5t85.5 -35.5t35.5 -85.5t-35.5 -85.5t-85.5 -35.5zM957 1575q-50 0 -85.5 35.5t-35.5 85.5t35.5 85.5t85.5 35.5t85.5 -35.5t35.5 -85.5t-35.5 -85.5t-85.5 -35.5z" />
    <glyph glyph-name="uni01D8" unicode="&#x1d8;" horiz-adv-x="1196" 
d="M1034 1078v-1078h-164v169h-16q-40 -90 -125 -139t-209 -49q-181 0 -274.5 104t-93.5 295v698h172v-656q0 -145 57.5 -214.5t186.5 -69.5q143 0 218.5 80t75.5 222v638h172zM493 1595l190 298h198l-218 -298h-170zM376 1286q-49 0 -84.5 35.5t-35.5 84.5q0 50 35.5 85
t84.5 35q50 0 85 -35t35 -85q0 -49 -35 -84.5t-85 -35.5zM810 1286q-49 0 -84.5 35.5t-35.5 84.5q0 50 35.5 85t84.5 35q50 0 85 -35t35 -85q0 -49 -35 -84.5t-85 -35.5z" />
    <glyph glyph-name="uni01D9" unicode="&#x1d9;" horiz-adv-x="1510" 
d="M362 1443v-935q0 -163 103 -269.5t290 -106.5q188 0 290.5 106.5t102.5 269.5v935h180v-947q0 -154 -68.5 -273.5t-197 -188t-307.5 -68.5t-307.5 68.5t-197 188t-68.5 273.5v947h180zM657 1862l-294 233h222l162 -135h16l162 135h222l-294 -233h-196zM553 1809
q49 0 83 -34t34 -83t-34 -83t-83 -34t-83 34t-34 83t34 83t83 34zM957 1809q49 0 83 -34t34 -83t-34 -83t-83 -34t-83 34t-34 83t34 83t83 34z" />
    <glyph glyph-name="uni01DA" unicode="&#x1da;" horiz-adv-x="1196" 
d="M1034 1078v-1078h-164v169h-16q-40 -90 -125 -139t-209 -49q-181 0 -274.5 104t-93.5 295v698h172v-656q0 -145 57.5 -214.5t186.5 -69.5q143 0 218.5 80t75.5 222v638h172zM694 1575h-202l-282 320h200l175 -207h16l175 207h200zM391 1228q-49 0 -83 34t-34 83t34 83
t83 34t83 -34t34 -83t-34 -83t-83 -34zM795 1228q-49 0 -83 34t-34 83t34 83t83 34t83 -34t34 -83t-34 -83t-83 -34z" />
    <glyph glyph-name="uni01DB" unicode="&#x1db;" horiz-adv-x="1510" 
d="M362 1443v-935q0 -163 103 -269.5t290 -106.5q188 0 290.5 106.5t102.5 269.5v935h180v-947q0 -154 -68.5 -273.5t-197 -188t-307.5 -68.5t-307.5 68.5t-197 188t-68.5 273.5v947h180zM861 1873h-176l-281 222h227zM553 1575q-50 0 -85.5 35.5t-35.5 85.5t35.5 85.5
t85.5 35.5t85.5 -35.5t35.5 -85.5t-35.5 -85.5t-85.5 -35.5zM957 1575q-50 0 -85.5 35.5t-35.5 85.5t35.5 85.5t85.5 35.5t85.5 -35.5t35.5 -85.5t-35.5 -85.5t-85.5 -35.5z" />
    <glyph glyph-name="uni01DC" unicode="&#x1dc;" horiz-adv-x="1196" 
d="M1034 1078v-1078h-164v169h-16q-40 -90 -125 -139t-209 -49q-181 0 -274.5 104t-93.5 295v698h172v-656q0 -145 57.5 -214.5t186.5 -69.5q143 0 218.5 80t75.5 222v638h172zM693 1595h-170l-218 298h198zM376 1286q-49 0 -84.5 35.5t-35.5 84.5q0 50 35.5 85t84.5 35
q50 0 85 -35t35 -85q0 -49 -35 -84.5t-85 -35.5zM810 1286q-49 0 -84.5 35.5t-35.5 84.5q0 50 35.5 85t84.5 35q50 0 85 -35t35 -85q0 -49 -35 -84.5t-85 -35.5z" />
    <glyph glyph-name="uni04D9" unicode="&#x4d9;" horiz-adv-x="1190" 
d="M304 799h-172q39 134 157.5 216t292.5 82q152 0 261.5 -68t169 -193t59.5 -296q0 -169 -60 -295t-169 -195t-257 -69q-218 0 -343 145.5t-125 396.5q0 19 1.5 42.5l1.5 23.5h772v8q0 160 -87 254t-224 94q-203 0 -278 -146zM588 133q129 0 212.5 87t92.5 230h-594
q2 -143 81.5 -230t207.5 -87z" />
    <glyph glyph-name="uni04D9" unicode="&#x259;" horiz-adv-x="1190" 
d="M304 799h-172q39 134 157.5 216t292.5 82q152 0 261.5 -68t169 -193t59.5 -296q0 -169 -60 -295t-169 -195t-257 -69q-218 0 -343 145.5t-125 396.5q0 19 1.5 42.5l1.5 23.5h772v8q0 160 -87 254t-224 94q-203 0 -278 -146zM588 133q129 0 212.5 87t92.5 230h-594
q2 -143 81.5 -230t207.5 -87z" />
    <glyph glyph-name="uni04D9" unicode="&#x1dd;" horiz-adv-x="1190" 
d="M304 799h-172q39 134 157.5 216t292.5 82q152 0 261.5 -68t169 -193t59.5 -296q0 -169 -60 -295t-169 -195t-257 -69q-218 0 -343 145.5t-125 396.5q0 19 1.5 42.5l1.5 23.5h772v8q0 160 -87 254t-224 94q-203 0 -278 -146zM588 133q129 0 212.5 87t92.5 230h-594
q2 -143 81.5 -230t207.5 -87z" />
    <glyph glyph-name="uni01DE" unicode="&#x1de;" horiz-adv-x="1380" 
d="M1122 0l-145 413h-574l-145 -413h-189l532 1443h178l532 -1443h-189zM682 1210l-226 -644h468l-226 644h-16zM353 2062h674v-130h-674v130zM488 1809q49 0 83 -34t34 -83t-34 -83t-83 -34t-83 34t-34 83t34 83t83 34zM892 1809q49 0 83 -34t34 -83t-34 -83t-83 -34
t-83 34t-34 83t34 83t83 34z" />
    <glyph glyph-name="uni01DF" unicode="&#x1df;" horiz-adv-x="1130" 
d="M462 -19q-104 0 -186.5 39t-130 111.5t-47.5 170.5q0 145 102.5 226.5t290.5 92.5l311 19v98q0 206 -244 206q-97 0 -161 -35t-82 -99h-174q17 130 134 208.5t289 78.5q197 0 303.5 -95.5t106.5 -263.5v-738h-164v159h-16q-108 -178 -332 -178zM494 132q89 0 158.5 35.5
t109.5 96.5t40 138v99l-290 -19q-123 -8 -179.5 -51.5t-56.5 -124.5q0 -82 62 -128t156 -46zM891 1756v-136h-654v136h654zM362 1228q-49 0 -83 34t-34 83t34 83t83 34t83 -34t34 -83t-34 -83t-83 -34zM766 1228q-49 0 -83 34t-34 83t34 83t83 34t83 -34t34 -83t-34 -83
t-83 -34z" />
    <glyph glyph-name="uni01E0" unicode="&#x1e0;" horiz-adv-x="1380" 
d="M1122 0l-145 413h-574l-145 -413h-189l532 1443h178l532 -1443h-189zM682 1210l-226 -644h468l-226 644h-16zM1027 2062v-130h-674v130h674zM690 1577q-49 0 -84 35t-35 84q0 50 35 84.5t84 34.5q50 0 84.5 -34.5t34.5 -84.5q0 -49 -34.5 -84t-84.5 -35z" />
    <glyph glyph-name="uni01E1" unicode="&#x1e1;" horiz-adv-x="1130" 
d="M462 -19q-104 0 -186.5 39t-130 111.5t-47.5 170.5q0 145 102.5 226.5t290.5 92.5l311 19v98q0 206 -244 206q-97 0 -161 -35t-82 -99h-174q17 130 134 208.5t289 78.5q197 0 303.5 -95.5t106.5 -263.5v-738h-164v159h-16q-108 -178 -332 -178zM494 132q89 0 158.5 35.5
t109.5 96.5t40 138v99l-290 -19q-123 -8 -179.5 -51.5t-56.5 -124.5q0 -82 62 -128t156 -46zM891 1756v-136h-654v136h654zM564 1228q-50 0 -84.5 34.5t-34.5 84.5t34.5 84.5t84.5 34.5t84.5 -34.5t34.5 -84.5t-34.5 -84.5t-84.5 -34.5z" />
    <glyph glyph-name="uni01E2" unicode="&#x1e2;" horiz-adv-x="1966" 
d="M986 0v459h-527l-209 -459h-181l651 1443h1104v-162h-658v-473h621v-160h-621v-486h658v-162h-838zM839 1292l-310 -680h457v680h-147zM1598 1817v-136h-654v136h654z" />
    <glyph glyph-name="uni01E3" unicode="&#x1e3;" horiz-adv-x="1849" 
d="M1287 -19q-130 0 -236.5 65.5t-149.5 165.5h-16q-52 -108 -157 -169.5t-249 -61.5q-169 0 -275 86.5t-106 234.5q0 145 102.5 226.5t290.5 92.5l311 19v98q0 206 -244 206q-97 0 -161 -35t-82 -99h-174q17 130 133.5 208.5t289.5 78.5q128 0 217.5 -52.5t130.5 -132.5h16
q47 80 144 132.5t213 52.5q214 0 335 -140.5t121 -388.5v-68h-768v-18q7 -159 93 -253.5t225 -94.5q195 0 264 145h172q-40 -142 -155 -220t-285 -78zM1276 946q-130 0 -211.5 -82.5t-91.5 -224.5h587q-3 135 -82.5 221t-201.5 86zM504 132q86 0 153.5 37.5t106 100.5
t38.5 140v91l-290 -19q-123 -8 -179.5 -51.5t-56.5 -124.5q0 -82 63.5 -128t164.5 -46zM1266 1472v-136h-654v136h654z" />
    <glyph glyph-name="Gcaron" unicode="&#x1e6;" horiz-adv-x="1529" 
d="M1395 558q0 -178 -76.5 -311t-214 -207t-322.5 -74q-199 0 -346 92.5t-227.5 262.5t-80.5 401q0 228 81 398t228.5 263.5t344.5 93.5q160 0 287 -56.5t209 -160.5t108 -247h-183q-95 298 -421 298q-143 0 -248.5 -72.5t-163 -204.5t-57.5 -312q0 -182 57 -314.5
t162.5 -204t250.5 -71.5q129 0 226.5 51.5t152 143.5t54.5 214v35h-406v158h585v-176zM864 1575h-164l-300 298h202l172 -177h16l172 177h202z" />
    <glyph glyph-name="gcaron" unicode="&#x1e7;" horiz-adv-x="1248" 
d="M606 -414q-195 0 -313.5 81t-138.5 214h182q14 -66 84 -105.5t186 -39.5q145 0 226.5 67.5t81.5 186.5v212h-16q-51 -89 -139 -137.5t-199 -48.5q-139 0 -240.5 67.5t-156.5 189t-55 282.5q0 162 55.5 284t157 190t239.5 68q113 0 206.5 -51.5t139.5 -138.5h16v171h164
v-1097q0 -181 -129.5 -288t-350.5 -107zM598 168q150 0 235 105.5t85 281.5t-85.5 281.5t-234.5 105.5q-150 0 -231 -105.5t-81 -281.5t81 -281.5t231 -105.5zM513 1228l-242 340h188l147 -227h16l147 227h188l-242 -340h-202z" />
    <glyph glyph-name="uni01E8" unicode="&#x1e8;" horiz-adv-x="1349" 
d="M364 0h-180v1443h180v-701h16l632 701h226l-577 -623l630 -820h-233l-521 695l-173 -191v-504zM735 1575h-164l-300 298h202l172 -177h16l172 177h202z" />
    <glyph glyph-name="uni01E9" unicode="&#x1e9;" horiz-adv-x="1112" 
d="M360 607l468 471h211l-464 -462l495 -616h-219l-404 505l-103 -96v-409h-172v1506h172v-899h16zM340 1638h-164l-300 298h202l172 -177h16l172 177h202z" />
    <glyph glyph-name="uni01EA" unicode="&#x1ea;" horiz-adv-x="1580" 
d="M1051 -435q-59 0 -113.5 20t-89 62.5t-34.5 107.5q0 111 132 226q-74 -15 -156 -15q-207 0 -355 92.5t-227.5 262.5t-79.5 401q0 232 80.5 401.5t229 261.5t352.5 92q205 0 353.5 -92.5t228.5 -261.5t80 -401q0 -192 -56 -343t-161 -250q-52 -55 -111 -108.5t-100 -107
t-41 -111.5q0 -14 6.5 -36.5t29 -40t69.5 -17.5q35 0 76 11v-135q-55 -19 -113 -19zM790 1311q-147 0 -254 -72t-165 -204t-58 -313q0 -179 57 -311.5t163.5 -205.5t256.5 -73q148 0 255 73t164.5 205.5t57.5 311.5q0 181 -58 313t-164.5 204t-254.5 72z" />
    <glyph glyph-name="uni01EB" unicode="&#x1eb;" horiz-adv-x="1210" 
d="M605 -19q-230 0 -363.5 149.5t-133.5 408.5q0 260 133.5 409t363.5 149t363.5 -149t133.5 -409q0 -145 -43 -256.5t-122 -184.5q-50 -49 -101.5 -97.5t-86 -97.5t-34.5 -101q0 -14 6.5 -36.5t29 -40t69.5 -17.5q35 0 76 11v-135q-55 -19 -113 -19q-59 0 -113.5 20
t-89 62.5t-34.5 107.5q0 113 137 231q-38 -5 -78 -5zM605 136q153 0 236 106t83 297q0 192 -83 297.5t-236 105.5t-236 -105.5t-83 -297.5q0 -191 83 -297t236 -106z" />
    <glyph glyph-name="uni01EC" unicode="&#x1ec;" horiz-adv-x="1580" 
d="M1051 -435q-59 0 -113.5 20t-89 62.5t-34.5 107.5q0 111 132 226q-74 -15 -156 -15q-207 0 -355 92.5t-227.5 262.5t-79.5 401q0 232 80.5 401.5t229 261.5t352.5 92q205 0 353.5 -92.5t228.5 -261.5t80 -401q0 -192 -56 -343t-161 -250q-52 -55 -111 -108.5t-100 -107
t-41 -111.5q0 -14 6.5 -36.5t29 -40t69.5 -17.5q35 0 76 11v-135q-55 -19 -113 -19zM790 1311q-147 0 -254 -72t-165 -204t-58 -313q0 -179 57 -311.5t163.5 -205.5t256.5 -73q148 0 255 73t164.5 205.5t57.5 311.5q0 181 -58 313t-164.5 204t-254.5 72zM1117 1817v-136
h-654v136h654z" />
    <glyph glyph-name="uni01ED" unicode="&#x1ed;" horiz-adv-x="1210" 
d="M605 -19q-230 0 -363.5 149.5t-133.5 408.5q0 260 133.5 409t363.5 149t363.5 -149t133.5 -409q0 -145 -43 -256.5t-122 -184.5q-50 -49 -101.5 -97.5t-86 -97.5t-34.5 -101q0 -14 6.5 -36.5t29 -40t69.5 -17.5q35 0 76 11v-135q-55 -19 -113 -19q-59 0 -113.5 20
t-89 62.5t-34.5 107.5q0 113 137 231q-38 -5 -78 -5zM605 136q153 0 236 106t83 297q0 192 -83 297.5t-236 105.5t-236 -105.5t-83 -297.5q0 -191 83 -297t236 -106zM932 1472v-136h-654v136h654z" />
    <glyph glyph-name="uni01F1" unicode="&#x1f1;" horiz-adv-x="2843" 
d="M184 1443h495q214 0 366.5 -85.5t233.5 -247t81 -388.5q0 -341 -179.5 -531.5t-501.5 -190.5h-495v1443zM364 1281v-1119h303q242 0 375.5 147t133.5 411q0 265 -134.5 413t-374.5 148h-303zM1632 0v128l817 1137v16h-789v162h1022v-128l-813 -1137v-16h830v-162h-1067z
" />
    <glyph glyph-name="uni01F2" unicode="&#x1f2;" horiz-adv-x="2592" 
d="M184 1443h495q214 0 366.5 -85.5t233.5 -247t81 -388.5q0 -341 -179.5 -531.5t-501.5 -190.5h-495v1443zM364 1281v-1119h303q242 0 375.5 147t133.5 411q0 265 -134.5 413t-374.5 148h-303zM1625 0v126l622 792v16h-621v144h826v-129l-619 -789v-16h622v-144h-830z" />
    <glyph glyph-name="uni01F3" unicode="&#x1f3;" horiz-adv-x="2362" 
d="M561 -19q-138 0 -240 69t-157.5 194.5t-55.5 294.5t56 294.5t158 194.5t239 69q113 0 202.5 -50t135.5 -139h15v598h172v-1506h-164v172h-16q-51 -90 -142 -140.5t-203 -50.5zM601 942q-147 0 -231 -107.5t-84 -295.5q0 -189 83.5 -296t231.5 -107q147 0 232 108t85 295
q0 185 -85.5 294t-231.5 109zM1395 0v126l622 792v16h-621v144h826v-129l-619 -789v-16h622v-144h-830z" />
    <glyph glyph-name="uni01F4" unicode="&#x1f4;" horiz-adv-x="1529" 
d="M1395 558q0 -178 -76.5 -311t-214 -207t-322.5 -74q-199 0 -346 92.5t-227.5 262.5t-80.5 401q0 228 81 398t228.5 263.5t344.5 93.5q160 0 287 -56.5t209 -160.5t108 -247h-183q-95 298 -421 298q-143 0 -248.5 -72.5t-163 -204.5t-57.5 -312q0 -182 57 -314.5
t162.5 -204t250.5 -71.5q129 0 226.5 51.5t152 143.5t54.5 214v35h-406v158h585v-176zM865 1575h-152l177 298h216z" />
    <glyph glyph-name="uni01F5" unicode="&#x1f5;" horiz-adv-x="1248" 
d="M606 -414q-195 0 -313.5 81t-138.5 214h182q14 -66 84 -105.5t186 -39.5q145 0 226.5 67.5t81.5 186.5v212h-16q-51 -89 -139 -137.5t-199 -48.5q-139 0 -240.5 67.5t-156.5 189t-55 282.5q0 162 55.5 284t157 190t239.5 68q113 0 206.5 -51.5t139.5 -138.5h16v171h164
v-1097q0 -181 -129.5 -288t-350.5 -107zM598 168q150 0 235 105.5t85 281.5t-85.5 281.5t-234.5 105.5q-150 0 -231 -105.5t-81 -281.5t81 -281.5t231 -105.5zM692 1228h-152l177 340h206z" />
    <glyph glyph-name="uni01F8" unicode="&#x1f8;" horiz-adv-x="1520" 
d="M362 0h-178v1443h175l783 -1123h16v1123h178v-1443h-175l-783 1119h-16v-1119zM677 1575l-241 298h216l177 -298h-152z" />
    <glyph glyph-name="uni01F9" unicode="&#x1f9;" horiz-adv-x="1195" 
d="M162 0v1078h164v-170h16q41 89 120.5 139t203.5 50q182 0 279.5 -103.5t97.5 -295.5v-698h-172v656q0 286 -254 286q-129 0 -206 -81t-77 -223v-638h-172zM525 1228l-231 340h206l177 -340h-152z" />
    <glyph glyph-name="Aringacute" unicode="&#x1fa;" horiz-adv-x="1380" 
d="M1122 0l-145 413h-574l-145 -413h-189l532 1443h178l532 -1443h-189zM682 1210l-226 -644h468l-226 644h-16zM760 2173h187l-174 -181h-161zM690 1533q-83 0 -142.5 57.5t-59.5 140.5t59.5 140.5t142.5 57.5t142.5 -57.5t59.5 -140.5t-59.5 -140.5t-142.5 -57.5z
M690 1628q43 0 71.5 29.5t28.5 72.5t-28.5 72.5t-71.5 29.5t-71.5 -29.5t-28.5 -72.5t28.5 -72.5t71.5 -29.5z" />
    <glyph glyph-name="aringacute" unicode="&#x1fb;" horiz-adv-x="1130" 
d="M462 -19q-104 0 -186.5 39t-130 111.5t-47.5 170.5q0 145 102.5 226.5t290.5 92.5l311 19v98q0 206 -244 206q-97 0 -161 -35t-82 -99h-174q17 130 134 208.5t289 78.5q197 0 303.5 -95.5t106.5 -263.5v-738h-164v159h-16q-108 -178 -332 -178zM494 132q89 0 158.5 35.5
t109.5 96.5t40 138v99l-290 -19q-123 -8 -179.5 -51.5t-56.5 -124.5q0 -82 62 -128t156 -46zM479 1683l166 226h199l-194 -226h-171zM564 1200q-84 0 -143 58t-59 140q0 83 59 140.5t143 57.5t143 -57.5t59 -140.5q0 -82 -59 -140t-143 -58zM464 1397q0 -43 29 -72.5
t71 -29.5t71 29.5t29 72.5q0 44 -29 73t-71 29t-71 -29t-29 -73z" />
    <glyph glyph-name="AEacute" unicode="&#x1fc;" horiz-adv-x="1966" 
d="M986 0v459h-527l-209 -459h-181l651 1443h1104v-162h-658v-473h621v-160h-621v-486h658v-162h-838zM839 1292l-310 -680h457v680h-147zM1354 1575h-152l177 298h216z" />
    <glyph glyph-name="aeacute" unicode="&#x1fd;" horiz-adv-x="1849" 
d="M1287 -19q-130 0 -236.5 65.5t-149.5 165.5h-16q-52 -108 -157 -169.5t-249 -61.5q-169 0 -275 86.5t-106 234.5q0 145 102.5 226.5t290.5 92.5l311 19v98q0 206 -244 206q-97 0 -161 -35t-82 -99h-174q17 130 133.5 208.5t289.5 78.5q128 0 217.5 -52.5t130.5 -132.5h16
q47 80 144 132.5t213 52.5q214 0 335 -140.5t121 -388.5v-68h-768v-18q7 -159 93 -253.5t225 -94.5q195 0 264 145h172q-40 -142 -155 -220t-285 -78zM1276 946q-130 0 -211.5 -82.5t-91.5 -224.5h587q-3 135 -82.5 221t-201.5 86zM504 132q86 0 153.5 37.5t106 100.5
t38.5 140v91l-290 -19q-123 -8 -179.5 -51.5t-56.5 -124.5q0 -82 63.5 -128t164.5 -46zM1017 1228h-152l177 340h206z" />
    <glyph glyph-name="Oslashacute" unicode="&#x1fe;" horiz-adv-x="1580" 
d="M790 1477q133 0 243 -40t193 -114l113 130l94 -92l-119 -137q67 -96 102.5 -222.5t35.5 -279.5q0 -230 -79.5 -400t-228 -263t-354.5 -93q-134 0 -243.5 40t-192.5 114l-113 -130l-94 92l119 137q-138 197 -138 503q0 232 80.5 401.5t229 261.5t352.5 92zM790 1320
q-150 0 -259 -73t-168 -207.5t-59 -317.5q0 -217 82 -365l728 837q-127 126 -324 126zM1276 722q0 215 -82 364l-728 -837q61 -60 142.5 -92.5t181.5 -32.5q151 0 260 74t167.5 208.5t58.5 315.5zM873 1575h-152l177 298h216z" />
    <glyph glyph-name="oslashacute" unicode="&#x1ff;" horiz-adv-x="1210" 
d="M605 -19q-187 0 -312 101l-88 -101l-94 92l93 106q-96 143 -96 360q0 260 133.5 409t363.5 149q187 0 312 -100l88 100l94 -92l-92 -106q95 -142 95 -360q0 -259 -133.5 -408.5t-363.5 -149.5zM277 539q0 -134 41 -228l496 567q-82 71 -209 71q-157 0 -242.5 -107
t-85.5 -303zM605 129q158 0 243 108t85 302q0 135 -41 229l-495 -567q81 -72 208 -72zM683 1228h-152l177 340h206z" />
    <glyph glyph-name="uni0200" unicode="&#x200;" horiz-adv-x="1380" 
d="M1122 0l-145 413h-574l-145 -413h-189l532 1443h178l532 -1443h-189zM682 1210l-226 -644h468l-226 644h-16zM940 1575h-142l-175 298h191zM609 1575h-142l-230 298h206z" />
    <glyph glyph-name="uni0201" unicode="&#x201;" horiz-adv-x="1130" 
d="M462 -19q-104 0 -186.5 39t-130 111.5t-47.5 170.5q0 145 102.5 226.5t290.5 92.5l311 19v98q0 206 -244 206q-97 0 -161 -35t-82 -99h-174q17 130 134 208.5t289 78.5q197 0 303.5 -95.5t106.5 -263.5v-738h-164v159h-16q-108 -178 -332 -178zM494 132q89 0 158.5 35.5
t109.5 96.5t40 138v99l-290 -19q-123 -8 -179.5 -51.5t-56.5 -124.5q0 -82 62 -128t156 -46zM797 1228h-133l-177 340h199zM489 1228h-142l-241 340h206z" />
    <glyph glyph-name="uni0202" unicode="&#x202;" horiz-adv-x="1380" 
d="M1122 0l-145 413h-574l-145 -413h-189l532 1443h178l532 -1443h-189zM682 1210l-226 -644h468l-226 644h-16zM1044 1575h-154q0 79 -51 126t-149 47q-97 0 -148.5 -47t-51.5 -126h-154q0 134 92.5 216t261.5 82q170 0 262 -82t92 -216z" />
    <glyph glyph-name="uni0203" unicode="&#x203;" horiz-adv-x="1130" 
d="M462 -19q-104 0 -186.5 39t-130 111.5t-47.5 170.5q0 145 102.5 226.5t290.5 92.5l311 19v98q0 206 -244 206q-97 0 -161 -35t-82 -99h-174q17 130 134 208.5t289 78.5q197 0 303.5 -95.5t106.5 -263.5v-738h-164v159h-16q-108 -178 -332 -178zM494 132q89 0 158.5 35.5
t109.5 96.5t40 138v99l-290 -19q-123 -8 -179.5 -51.5t-56.5 -124.5q0 -82 62 -128t156 -46zM913 1228h-154q0 95 -46.5 153.5t-148.5 58.5t-148.5 -58.5t-46.5 -153.5h-154q0 150 89 245t260 95t260 -95t89 -245z" />
    <glyph glyph-name="uni0204" unicode="&#x204;" horiz-adv-x="1220" 
d="M1078 162v-162h-894v1443h894v-162h-714v-463h677v-160h-677v-496h714zM881 1575h-142l-175 298h191zM550 1575h-142l-230 298h206z" />
    <glyph glyph-name="uni0205" unicode="&#x205;" horiz-adv-x="1170" 
d="M876 279h172q-37 -138 -157 -218t-297 -80q-149 0 -258.5 68t-168.5 193.5t-59 295.5t60 295.5t169 194.5t257 69q218 0 343 -145.5t125 -396.5v-66h-775v-8q7 -160 90.5 -254t220.5 -94q209 0 278 146zM592 945q-129 0 -212 -87t-93 -230h594q-3 143 -82 230t-207 87z
M827 1228h-133l-177 340h199zM519 1228h-142l-241 340h206z" />
    <glyph glyph-name="uni0206" unicode="&#x206;" horiz-adv-x="1220" 
d="M1078 162v-162h-894v1443h894v-162h-714v-463h677v-160h-677v-496h714zM985 1575h-154q0 79 -51 126t-149 47q-97 0 -148.5 -47t-51.5 -126h-154q0 134 92.5 216t261.5 82q170 0 262 -82t92 -216z" />
    <glyph glyph-name="uni0207" unicode="&#x207;" horiz-adv-x="1170" 
d="M876 279h172q-37 -138 -157 -218t-297 -80q-149 0 -258.5 68t-168.5 193.5t-59 295.5t60 295.5t169 194.5t257 69q218 0 343 -145.5t125 -396.5v-66h-775v-8q7 -160 90.5 -254t220.5 -94q209 0 278 146zM592 945q-129 0 -212 -87t-93 -230h594q-3 143 -82 230t-207 87z
M943 1228h-154q0 95 -46.5 153.5t-148.5 58.5t-148.5 -58.5t-46.5 -153.5h-154q0 150 89 245t260 95t260 -95t89 -245z" />
    <glyph glyph-name="uni0208" unicode="&#x208;" horiz-adv-x="548" 
d="M364 0h-180v1443h180v-1443zM524 1575h-142l-175 298h191zM193 1575h-142l-230 298h206z" />
    <glyph glyph-name="uni0209" unicode="&#x209;" horiz-adv-x="504" 
d="M166 0v1078h172v-1078h-172zM485 1228h-133l-177 340h199zM177 1228h-142l-241 340h206z" />
    <glyph glyph-name="uni020A" unicode="&#x20a;" horiz-adv-x="548" 
d="M364 0h-180v1443h180v-1443zM628 1575h-154q0 79 -51 126t-149 47q-97 0 -148.5 -47t-51.5 -126h-154q0 134 92.5 216t261.5 82q170 0 262 -82t92 -216z" />
    <glyph glyph-name="uni020B" unicode="&#x20b;" horiz-adv-x="504" 
d="M166 0v1078h172v-1078h-172zM601 1228h-154q0 95 -46.5 153.5t-148.5 58.5t-148.5 -58.5t-46.5 -153.5h-154q0 150 89 245t260 95t260 -95t89 -245z" />
    <glyph glyph-name="uni020C" unicode="&#x20c;" horiz-adv-x="1580" 
d="M790 1477q205 0 353.5 -92.5t228.5 -261.5t80 -401q0 -230 -79.5 -400t-228 -263t-354.5 -93q-207 0 -355 92.5t-227.5 262.5t-79.5 401q0 232 80.5 401.5t229 261.5t352.5 92zM790 1311q-147 0 -254 -72t-165 -204t-58 -313q0 -179 57 -311.5t163.5 -205.5t256.5 -73
q148 0 255 73t164.5 205.5t57.5 311.5q0 181 -58 313t-164.5 204t-254.5 72zM1040 1575h-142l-175 298h191zM709 1575h-142l-230 298h206z" />
    <glyph glyph-name="uni020D" unicode="&#x20d;" horiz-adv-x="1210" 
d="M605 -19q-230 0 -363.5 149.5t-133.5 408.5q0 260 133.5 409t363.5 149t363.5 -149t133.5 -409q0 -259 -133.5 -408.5t-363.5 -149.5zM605 136q153 0 236 106t83 297q0 192 -83 297.5t-236 105.5t-236 -105.5t-83 -297.5q0 -191 83 -297t236 -106zM838 1228h-133
l-177 340h199zM530 1228h-142l-241 340h206z" />
    <glyph glyph-name="uni020E" unicode="&#x20e;" horiz-adv-x="1580" 
d="M790 1477q205 0 353.5 -92.5t228.5 -261.5t80 -401q0 -230 -79.5 -400t-228 -263t-354.5 -93q-207 0 -355 92.5t-227.5 262.5t-79.5 401q0 232 80.5 401.5t229 261.5t352.5 92zM790 1311q-147 0 -254 -72t-165 -204t-58 -313q0 -179 57 -311.5t163.5 -205.5t256.5 -73
q148 0 255 73t164.5 205.5t57.5 311.5q0 181 -58 313t-164.5 204t-254.5 72zM1144 1575h-154q0 79 -51 126t-149 47q-97 0 -148.5 -47t-51.5 -126h-154q0 134 92.5 216t261.5 82q170 0 262 -82t92 -216z" />
    <glyph glyph-name="uni020F" unicode="&#x20f;" horiz-adv-x="1210" 
d="M605 -19q-230 0 -363.5 149.5t-133.5 408.5q0 260 133.5 409t363.5 149t363.5 -149t133.5 -409q0 -259 -133.5 -408.5t-363.5 -149.5zM605 136q153 0 236 106t83 297q0 192 -83 297.5t-236 105.5t-236 -105.5t-83 -297.5q0 -191 83 -297t236 -106zM954 1228h-154
q0 95 -46.5 153.5t-148.5 58.5t-148.5 -58.5t-46.5 -153.5h-154q0 150 89 245t260 95t260 -95t89 -245z" />
    <glyph glyph-name="uni0210" unicode="&#x210;" horiz-adv-x="1338" 
d="M364 571v-571h-180v1443h551q139 0 242.5 -53.5t160.5 -150t57 -226.5q0 -151 -77 -261t-213 -153l334 -599h-211l-309 571h-355zM364 1283v-552h355q139 0 214.5 71.5t75.5 204.5q0 130 -79 203t-219 73h-347zM859 1575h-142l-175 298h191zM528 1575h-142l-230 298h206z
" />
    <glyph glyph-name="uni0211" unicode="&#x211;" horiz-adv-x="780" 
d="M162 0v1078h164v-160h16q24 79 108 129t191 50q49 0 86 -5v-172q-10 3 -47 6.5t-63 3.5q-123 0 -203 -74t-80 -188v-668h-172zM611 1228h-133l-177 340h199zM303 1228h-142l-241 340h206z" />
    <glyph glyph-name="uni0212" unicode="&#x212;" horiz-adv-x="1338" 
d="M364 571v-571h-180v1443h551q139 0 242.5 -53.5t160.5 -150t57 -226.5q0 -151 -77 -261t-213 -153l334 -599h-211l-309 571h-355zM364 1283v-552h355q139 0 214.5 71.5t75.5 204.5q0 130 -79 203t-219 73h-347zM963 1575h-154q0 79 -51 126t-149 47q-97 0 -148.5 -47
t-51.5 -126h-154q0 134 92.5 216t261.5 82q170 0 262 -82t92 -216z" />
    <glyph glyph-name="uni0213" unicode="&#x213;" horiz-adv-x="780" 
d="M162 0v1078h164v-160h16q24 79 108 129t191 50q49 0 86 -5v-172q-10 3 -47 6.5t-63 3.5q-123 0 -203 -74t-80 -188v-668h-172zM727 1228h-154q0 95 -46.5 153.5t-148.5 58.5t-148.5 -58.5t-46.5 -153.5h-154q0 150 89 245t260 95t260 -95t89 -245z" />
    <glyph glyph-name="uni0214" unicode="&#x214;" horiz-adv-x="1510" 
d="M362 1443v-935q0 -163 103 -269.5t290 -106.5q188 0 290.5 106.5t102.5 269.5v935h180v-947q0 -154 -68.5 -273.5t-197 -188t-307.5 -68.5t-307.5 68.5t-197 188t-68.5 273.5v947h180zM1005 1575h-142l-175 298h191zM674 1575h-142l-230 298h206z" />
    <glyph glyph-name="uni0215" unicode="&#x215;" horiz-adv-x="1196" 
d="M1034 1078v-1078h-164v169h-16q-40 -90 -125 -139t-209 -49q-181 0 -274.5 104t-93.5 295v698h172v-656q0 -145 57.5 -214.5t186.5 -69.5q143 0 218.5 80t75.5 222v638h172zM826 1228h-133l-177 340h199zM518 1228h-142l-241 340h206z" />
    <glyph glyph-name="uni0216" unicode="&#x216;" horiz-adv-x="1510" 
d="M362 1443v-935q0 -163 103 -269.5t290 -106.5q188 0 290.5 106.5t102.5 269.5v935h180v-947q0 -154 -68.5 -273.5t-197 -188t-307.5 -68.5t-307.5 68.5t-197 188t-68.5 273.5v947h180zM1109 1575h-154q0 79 -51 126t-149 47q-97 0 -148.5 -47t-51.5 -126h-154
q0 134 92.5 216t261.5 82q170 0 262 -82t92 -216z" />
    <glyph glyph-name="uni0217" unicode="&#x217;" horiz-adv-x="1196" 
d="M1034 1078v-1078h-164v169h-16q-40 -90 -125 -139t-209 -49q-181 0 -274.5 104t-93.5 295v698h172v-656q0 -145 57.5 -214.5t186.5 -69.5q143 0 218.5 80t75.5 222v638h172zM942 1228h-154q0 95 -46.5 153.5t-148.5 58.5t-148.5 -58.5t-46.5 -153.5h-154q0 150 89 245
t260 95t260 -95t89 -245z" />
    <glyph glyph-name="uni0218" unicode="&#x218;" horiz-adv-x="1305" 
d="M115 377h182q17 -113 117 -180t254 -67q97 0 173 32t120 88.5t44 127.5q0 92 -70 153t-219 98l-185 48q-196 50 -285 142.5t-89 246.5q0 123 64 215.5t179 144t267 51.5q140 0 250.5 -51t177.5 -141t74 -207h-181q-19 111 -105.5 173.5t-221.5 62.5q-144 0 -231.5 -66
t-87.5 -176q0 -85 64.5 -138t213.5 -91l151 -40q224 -56 321.5 -150t97.5 -253q0 -132 -66 -229.5t-187 -151t-286 -53.5q-153 0 -270.5 51t-186.5 143.5t-79 216.5zM605 -494h-127l82 377h182z" />
    <glyph glyph-name="uni0219" unicode="&#x219;" horiz-adv-x="1072" 
d="M137 783q0 90 53 161t144 112t205 41q170 0 279.5 -78t126.5 -211h-170q-17 65 -78 104t-159 39q-96 0 -162 -44.5t-66 -116.5q0 -105 187 -151l166 -40q152 -37 226.5 -106.5t74.5 -185.5q0 -96 -57 -169.5t-154.5 -115t-220.5 -41.5q-180 0 -295 80t-129 214h177
q22 -68 86 -108.5t167 -40.5q109 0 179 47t70 121q0 110 -171 152l-185 45q-151 37 -222.5 106t-71.5 186zM486 -494h-127l82 377h182z" />
    <glyph glyph-name="uni021A" unicode="&#x21a;" horiz-adv-x="1298" 
d="M739 0h-180v1281h-465v162h1110v-162h-465v-1281zM603 -494h-127l82 377h182z" />
    <glyph glyph-name="uni021B" unicode="&#x21b;" horiz-adv-x="744" 
d="M234 1357h172v-279h240v-144h-240v-610q0 -95 38 -138t122 -43q23 0 39.5 1t40.5 3v-145q-25 -4 -50 -7t-51 -3q-166 0 -238.5 67t-72.5 221v654h-174v144h174v279zM370 -494h-127l82 377h182z" />
    <glyph glyph-name="uni021E" unicode="&#x21e;" horiz-adv-x="1520" 
d="M1336 0h-180v657h-792v-657h-180v1443h180v-624h792v624h180v-1443zM842 1575h-164l-300 298h202l172 -177h16l172 177h202z" />
    <glyph glyph-name="uni021F" unicode="&#x21f;" horiz-adv-x="1216" 
d="M172 0v1506h172v-598h16q41 89 124.5 139t207.5 50q171 0 271.5 -104.5t100.5 -294.5v-698h-172v656q0 286 -249 286q-145 0 -222 -83.5t-77 -220.5v-638h-172zM340 1638h-164l-300 298h202l172 -177h16l172 177h202z" />
    <glyph glyph-name="uni0226" unicode="&#x226;" horiz-adv-x="1380" 
d="M1122 0l-145 413h-574l-145 -413h-189l532 1443h178l532 -1443h-189zM682 1210l-226 -644h468l-226 644h-16zM690 1631q-49 0 -84.5 35.5t-35.5 84.5q0 50 35.5 85t84.5 35q50 0 85 -35t35 -85q0 -49 -35 -84.5t-85 -35.5z" />
    <glyph glyph-name="uni0227" unicode="&#x227;" horiz-adv-x="1130" 
d="M462 -19q-104 0 -186.5 39t-130 111.5t-47.5 170.5q0 145 102.5 226.5t290.5 92.5l311 19v98q0 206 -244 206q-97 0 -161 -35t-82 -99h-174q17 130 134 208.5t289 78.5q197 0 303.5 -95.5t106.5 -263.5v-738h-164v159h-16q-108 -178 -332 -178zM494 132q89 0 158.5 35.5
t109.5 96.5t40 138v99l-290 -19q-123 -8 -179.5 -51.5t-56.5 -124.5q0 -82 62 -128t156 -46zM564 1286q-49 0 -84.5 35.5t-35.5 84.5q0 50 35.5 85t84.5 35q50 0 85 -35t35 -85q0 -49 -35 -84.5t-85 -35.5z" />
    <glyph glyph-name="uni0228" unicode="&#x228;" horiz-adv-x="1220" 
d="M1078 162v-162h-894v1443h894v-162h-714v-463h677v-160h-677v-496h714zM501 -240v90l97 172h131v-22l-78 -132q102 0 162.5 -43t60.5 -120q0 -70 -36.5 -112.5t-95.5 -62t-127 -19.5q-35 0 -71.5 5t-73.5 13v116q12 -3 44 -8t69 -5q47 0 87.5 14.5t40.5 52.5
q0 36 -37.5 48.5t-111.5 12.5h-61z" />
    <glyph glyph-name="uni0229" unicode="&#x229;" horiz-adv-x="1170" 
d="M876 279h172q-37 -138 -157 -218t-297 -80q-149 0 -258.5 68t-168.5 193.5t-59 295.5t60 295.5t169 194.5t257 69q218 0 343 -145.5t125 -396.5v-66h-775v-8q7 -160 90.5 -254t220.5 -94q209 0 278 146zM592 945q-129 0 -212 -87t-93 -230h594q-3 143 -82 230t-207 87z
M465 -240v90l97 172h131v-22l-78 -132q102 0 162.5 -43t60.5 -120q0 -70 -36.5 -112.5t-95.5 -62t-127 -19.5q-35 0 -71.5 5t-73.5 13v116q12 -3 44 -8t69 -5q47 0 87.5 14.5t40.5 52.5q0 36 -37.5 48.5t-111.5 12.5h-61z" />
    <glyph glyph-name="uni022A" unicode="&#x22a;" horiz-adv-x="1580" 
d="M790 1477q205 0 353.5 -92.5t228.5 -261.5t80 -401q0 -230 -79.5 -400t-228 -263t-354.5 -93q-207 0 -355 92.5t-227.5 262.5t-79.5 401q0 232 80.5 401.5t229 261.5t352.5 92zM790 1311q-147 0 -254 -72t-165 -204t-58 -313q0 -179 57 -311.5t163.5 -205.5t256.5 -73
q148 0 255 73t164.5 205.5t57.5 311.5q0 181 -58 313t-164.5 204t-254.5 72zM453 2062h674v-130h-674v130zM588 1809q49 0 83 -34t34 -83t-34 -83t-83 -34t-83 34t-34 83t34 83t83 34zM992 1809q49 0 83 -34t34 -83t-34 -83t-83 -34t-83 34t-34 83t34 83t83 34z" />
    <glyph glyph-name="uni022B" unicode="&#x22b;" horiz-adv-x="1210" 
d="M605 -19q-230 0 -363.5 149.5t-133.5 408.5q0 260 133.5 409t363.5 149t363.5 -149t133.5 -409q0 -259 -133.5 -408.5t-363.5 -149.5zM605 136q153 0 236 106t83 297q0 192 -83 297.5t-236 105.5t-236 -105.5t-83 -297.5q0 -191 83 -297t236 -106zM932 1756v-136h-654
v136h654zM403 1228q-49 0 -83 34t-34 83t34 83t83 34t83 -34t34 -83t-34 -83t-83 -34zM807 1228q-49 0 -83 34t-34 83t34 83t83 34t83 -34t34 -83t-34 -83t-83 -34z" />
    <glyph glyph-name="uni022C" unicode="&#x22c;" horiz-adv-x="1580" 
d="M790 1477q205 0 353.5 -92.5t228.5 -261.5t80 -401q0 -230 -79.5 -400t-228 -263t-354.5 -93q-207 0 -355 92.5t-227.5 262.5t-79.5 401q0 232 80.5 401.5t229 261.5t352.5 92zM790 1311q-147 0 -254 -72t-165 -204t-58 -313q0 -179 57 -311.5t163.5 -205.5t256.5 -73
q148 0 255 73t164.5 205.5t57.5 311.5q0 181 -58 313t-164.5 204t-254.5 72zM1127 2062v-130h-674v130h674zM930 1575q-64 0 -100.5 19.5t-60.5 44.5t-49 44.5t-66 19.5q-88 0 -94 -111h-136q0 106 63 173.5t163 67.5q64 0 100.5 -19.5t60.5 -44.5t49.5 -44.5t65.5 -19.5
q36 0 63.5 26.5t31.5 84.5h135q0 -100 -62.5 -170.5t-163.5 -70.5z" />
    <glyph glyph-name="uni022D" unicode="&#x22d;" horiz-adv-x="1210" 
d="M605 -19q-230 0 -363.5 149.5t-133.5 408.5q0 260 133.5 409t363.5 149t363.5 -149t133.5 -409q0 -259 -133.5 -408.5t-363.5 -149.5zM605 136q153 0 236 106t83 297q0 192 -83 297.5t-236 105.5t-236 -105.5t-83 -297.5q0 -191 83 -297t236 -106zM729 1235
q-61 0 -96.5 22.5t-58.5 52.5t-45 52.5t-56 22.5q-36 0 -56 -34.5t-20 -119.5h-142q0 137 57.5 212.5t163.5 75.5q60 0 96.5 -23.5t61 -55t47.5 -55t56 -23.5q41 0 58.5 37.5t17.5 122.5h142q0 -136 -58.5 -211.5t-167.5 -75.5zM932 1795v-136h-654v136h654z" />
    <glyph glyph-name="uni022E" unicode="&#x22e;" horiz-adv-x="1580" 
d="M790 1477q205 0 353.5 -92.5t228.5 -261.5t80 -401q0 -230 -79.5 -400t-228 -263t-354.5 -93q-207 0 -355 92.5t-227.5 262.5t-79.5 401q0 232 80.5 401.5t229 261.5t352.5 92zM790 1311q-147 0 -254 -72t-165 -204t-58 -313q0 -179 57 -311.5t163.5 -205.5t256.5 -73
q148 0 255 73t164.5 205.5t57.5 311.5q0 181 -58 313t-164.5 204t-254.5 72zM790 1631q-49 0 -84.5 35.5t-35.5 84.5q0 50 35.5 85t84.5 35q50 0 85 -35t35 -85q0 -49 -35 -84.5t-85 -35.5z" />
    <glyph glyph-name="uni022F" unicode="&#x22f;" horiz-adv-x="1210" 
d="M605 -19q-230 0 -363.5 149.5t-133.5 408.5q0 260 133.5 409t363.5 149t363.5 -149t133.5 -409q0 -259 -133.5 -408.5t-363.5 -149.5zM605 136q153 0 236 106t83 297q0 192 -83 297.5t-236 105.5t-236 -105.5t-83 -297.5q0 -191 83 -297t236 -106zM605 1286
q-49 0 -84.5 35.5t-35.5 84.5q0 50 35.5 85t84.5 35q50 0 85 -35t35 -85q0 -49 -35 -84.5t-85 -35.5z" />
    <glyph glyph-name="uni0230" unicode="&#x230;" horiz-adv-x="1580" 
d="M790 1477q205 0 353.5 -92.5t228.5 -261.5t80 -401q0 -230 -79.5 -400t-228 -263t-354.5 -93q-207 0 -355 92.5t-227.5 262.5t-79.5 401q0 232 80.5 401.5t229 261.5t352.5 92zM790 1311q-147 0 -254 -72t-165 -204t-58 -313q0 -179 57 -311.5t163.5 -205.5t256.5 -73
q148 0 255 73t164.5 205.5t57.5 311.5q0 181 -58 313t-164.5 204t-254.5 72zM1127 2062v-130h-674v130h674zM790 1577q-49 0 -84 35t-35 84q0 50 35 84.5t84 34.5q50 0 84.5 -34.5t34.5 -84.5q0 -49 -34.5 -84t-84.5 -35z" />
    <glyph glyph-name="uni0231" unicode="&#x231;" horiz-adv-x="1210" 
d="M605 -19q-230 0 -363.5 149.5t-133.5 408.5q0 260 133.5 409t363.5 149t363.5 -149t133.5 -409q0 -259 -133.5 -408.5t-363.5 -149.5zM605 136q153 0 236 106t83 297q0 192 -83 297.5t-236 105.5t-236 -105.5t-83 -297.5q0 -191 83 -297t236 -106zM932 1756v-136h-654
v136h654zM605 1228q-50 0 -84.5 34.5t-34.5 84.5t34.5 84.5t84.5 34.5t84.5 -34.5t34.5 -84.5t-34.5 -84.5t-84.5 -34.5z" />
    <glyph glyph-name="uni0232" unicode="&#x232;" horiz-adv-x="1344" 
d="M762 0h-180v621l-512 822h205l389 -641h16l389 641h205l-512 -822v-621zM999 1817v-136h-654v136h654z" />
    <glyph glyph-name="uni0233" unicode="&#x233;" horiz-adv-x="1112" 
d="M254 -390q-41 0 -77 6v147q16 -3 35 -4t37 -1q74 0 119 40t79 137l20 64l-399 1079h186l296 -887h16l295 887h183l-421 -1144q-46 -125 -94.5 -195.5t-113.5 -99.5t-161 -29zM878 1472v-136h-654v136h654z" />
    <glyph glyph-name="uni0237" unicode="&#x237;" horiz-adv-x="504" 
d="M338 1078v-1131q0 -166 -80 -241.5t-250 -75.5h-30v147h26q92 0 127 39t35 128v1134h172z" />
    <glyph glyph-name="uni0250" unicode="&#x250;" horiz-adv-x="1130" 
d="M668 1097q105 0 187 -39t129.5 -111t47.5 -171q0 -145 -102.5 -226.5t-290.5 -92.5l-311 -19v-98q0 -206 244 -206q97 0 161 35t82 99h174q-17 -130 -133.5 -208.5t-289.5 -78.5q-197 0 -303.5 95.5t-106.5 263.5v738h164v-159h16q108 178 332 178zM636 946
q-88 0 -158 -35.5t-110 -96.5t-40 -138v-99l290 19q123 8 179.5 51.5t56.5 124.5q0 83 -62 128.5t-156 45.5z" />
    <glyph glyph-name="uni0251" unicode="&#x251;" horiz-adv-x="1248" 
d="M556 1097q114 0 203.5 -52.5t136.5 -146.5h16v180h164v-1078h-164v172h-16q-102 -191 -340 -191q-134 0 -235 69.5t-157 195t-56 293.5q0 167 56.5 292.5t157.5 195.5t234 70zM594 136q143 0 228.5 109.5t85.5 293.5q0 183 -85.5 293t-228.5 110q-142 0 -225 -108.5
t-83 -294.5q0 -187 83 -295t225 -108z" />
    <glyph glyph-name="uni0252" unicode="&#x252;" horiz-adv-x="1248" 
d="M692 -19q-114 0 -203.5 52.5t-136.5 146.5h-16v-180h-164v1078h164v-172h16q102 191 340 191q135 0 235.5 -69.5t156.5 -195t56 -293.5q0 -167 -56.5 -292.5t-157 -195.5t-234.5 -70zM654 942q-143 0 -228.5 -109.5t-85.5 -293.5q0 -183 86 -293t228 -110
q143 0 225.5 108.5t82.5 294.5q0 187 -82.5 295t-225.5 108z" />
    <glyph glyph-name="uni0253" unicode="&#x253;" horiz-adv-x="1258" 
d="M698 -19q-112 0 -203.5 50.5t-142.5 140.5h-16v-172h-164v1255q0 108 39 164t98 76.5t117 20.5q47 0 86 -11t61 -23v-139q-15 8 -41.5 15t-55.5 7q-48 0 -90 -24t-42 -110v-323h16q44 87 135.5 138t202.5 51q137 0 238.5 -69t157.5 -194t56 -295q0 -168 -56 -293.5
t-157.5 -195t-238.5 -69.5zM658 942q-147 0 -232.5 -108t-85.5 -295t85.5 -295t232.5 -108q148 0 231 107t83 296t-83 296t-231 107z" />
    <glyph glyph-name="uni0254" unicode="&#x254;" horiz-adv-x="1146" 
d="M92 330h174q21 -80 91.5 -137t186.5 -57q146 0 231 108t85 291q0 187 -86 297t-230 110q-109 0 -181.5 -48.5t-96.5 -140.5h-174q23 149 140 246.5t311 97.5q151 0 262 -69t172 -195t61 -298q0 -168 -60.5 -292.5t-171.5 -193t-262 -68.5q-131 0 -227 47.5t-153 126.5
t-72 175z" />
    <glyph glyph-name="uni0255" unicode="&#x255;" horiz-adv-x="1146" 
d="M720 -285h-154v270q-128 14 -232 78t-165 183t-61 297q0 169 61 293t172 192.5t261 68.5q131 0 227 -47t153 -126.5t72 -175.5h-174q-21 80 -91.5 137t-186.5 57q-146 0 -231 -108.5t-85 -290.5q0 -180 68 -289.5t212 -132.5v54q0 134 66 227t196 93q99 0 167 -61.5
t68 -160.5q0 -116 -97.5 -193t-245.5 -95v-270zM720 189v-70q98 13 141.5 53.5t43.5 92.5q0 41 -24.5 61.5t-56.5 20.5q-48 0 -76 -42t-28 -116z" />
    <glyph glyph-name="uni0256" unicode="&#x256;" horiz-adv-x="1258" 
d="M561 -19q-138 0 -240 69t-157.5 194.5t-55.5 294.5t56 294.5t158 194.5t239 69q113 0 202.5 -50t135.5 -139h15v598h172v-1591q0 -86 42 -110t90 -24q29 0 55.5 7t41.5 15v-139q-22 -12 -61 -23t-86 -11q-58 0 -117 20.5t-98 76.5t-39 164v281h-16q-51 -90 -138 -140.5
t-199 -50.5zM601 942q-147 0 -231 -107.5t-84 -295.5q0 -189 83.5 -296t231.5 -107q147 0 232 108t85 295q0 185 -85.5 294t-231.5 109z" />
    <glyph glyph-name="uni0257" unicode="&#x257;" horiz-adv-x="1258" 
d="M561 -19q-138 0 -240 69t-157.5 194.5t-55.5 294.5t56 294.5t158 194.5t239 69q113 0 202.5 -50t135.5 -139h15v347q0 108 39 164t98 76.5t117 20.5q47 0 86 -11t61 -23v-139q-15 8 -41.5 15t-55.5 7q-48 0 -90 -24t-42 -110v-1231h-164v172h-16q-51 -90 -142 -140.5
t-203 -50.5zM601 942q-147 0 -231 -107.5t-84 -295.5q0 -189 83.5 -296t231.5 -107q147 0 232 108t85 295q0 185 -85.5 294t-231.5 109z" />
    <glyph glyph-name="uni0258" unicode="&#x258;" horiz-adv-x="1170" 
d="M294 279q69 -146 278 -146q137 0 220.5 94t90.5 254v8h-775v66q0 251 125 396.5t343 145.5q148 0 257 -69t169 -194.5t60 -295.5t-59 -295.5t-168 -193.5t-259 -68q-177 0 -296.5 80t-157.5 218h172zM578 945q-128 0 -207 -87t-82 -230h594q-10 143 -93 230t-212 87z" />
    <glyph glyph-name="uni025A" unicode="&#x25a;" horiz-adv-x="1578" 
d="M294 799h-172q38 138 157.5 218t296.5 80q215 0 344 -138.5t141 -374.5h306v-158q0 -79 34 -107t79 -28q28 0 52 6t36 11v-136q-17 -9 -54 -20t-78 -11q-55 0 -108.5 23t-88.5 79.5t-35 158.5v47h-147q-23 -215 -151 -341.5t-330 -126.5q-218 0 -343 145.5t-125 396.5v66
h775v8q-7 160 -90.5 254t-220.5 94q-209 0 -278 -146zM578 133q129 0 212 87t93 230h-594q3 -143 82 -230t207 -87z" />
    <glyph glyph-name="uni025B" unicode="&#x25b;" horiz-adv-x="1057" 
d="M552 -19q-209 0 -326.5 88t-117.5 222q0 178 186 240v16q-166 67 -166 235q0 97 54 167.5t150 109t220 38.5q197 0 312.5 -81.5t139.5 -236.5h-174q-21 79 -93 121t-185 42q-114 0 -185.5 -43.5t-71.5 -121.5q0 -68 60 -112t179 -44h153v-154h-153q-124 0 -186 -45.5
t-62 -118.5q0 -76 69 -121t197 -45q115 0 196 50.5t103 138.5h174q-17 -100 -84 -178t-168 -122.5t-221 -44.5z" />
    <glyph glyph-name="uni025C" unicode="&#x25c;" horiz-adv-x="1047" 
d="M479 -19q-120 0 -217 44.5t-157.5 122.5t-72.5 178h174q22 -88 93.5 -138.5t189.5 -50.5q125 0 198.5 45t73.5 121q0 73 -62 118.5t-186 45.5h-153v154h153q119 0 179 44t60 112q0 78 -71.5 121.5t-185.5 43.5q-112 0 -186 -42t-95 -121h-174q24 155 141.5 236.5
t313.5 81.5q125 0 220.5 -38.5t149.5 -109t54 -167.5q0 -168 -166 -235v-16q186 -62 186 -240q0 -134 -121.5 -222t-338.5 -88z" />
    <glyph glyph-name="uni025D" unicode="&#x25d;" horiz-adv-x="1448" 
d="M479 -19q-120 0 -217 44.5t-157.5 122.5t-72.5 178h174q22 -88 93.5 -138.5t189.5 -50.5q125 0 198.5 45t73.5 121q0 73 -62 118.5t-186 45.5h-153v154h153q119 0 179 44t60 112q0 78 -71.5 121.5t-185.5 43.5q-112 0 -186 -42t-95 -121h-174q24 155 141.5 236.5
t313.5 81.5q125 0 220.5 -38.5t149.5 -109t54 -167.5q0 -106 -62 -169h380v-158q0 -79 34 -107t79 -28q28 0 52 6t36 11v-136q-17 -9 -54 -20t-78 -11q-55 0 -108.5 22.5t-88.5 79.5t-35 159v47h-219q84 -67 84 -187q0 -134 -121.5 -222t-338.5 -88z" />
    <glyph glyph-name="uni025E" unicode="&#x25e;" horiz-adv-x="1264" 
d="M664 1098q135 0 234 -42t153.5 -115t54.5 -166q0 -81 -47 -142t-141 -92v-4q94 -32 139 -93.5t45 -143.5q0 -93 -54.5 -165t-154 -113t-233.5 -41q-196 0 -317.5 78.5t-178 206t-56.5 273.5q0 145 58.5 273t181.5 207t316 79zM543 612h137q115 0 185.5 44t70.5 127
q0 68 -68.5 114t-198.5 46q-129 0 -214 -53.5t-127 -145.5t-42 -205q0 -114 42.5 -205.5t127.5 -144.5t213 -53q130 0 196.5 46t66.5 116q0 80 -68.5 122.5t-183.5 42.5h-137v149z" />
    <glyph glyph-name="uni025F" unicode="&#x25f;" horiz-adv-x="608" 
d="M30 528v142h188v408h172v-408h188v-142h-188v-581q0 -166 -80 -241.5t-250 -75.5h-30v147h26q92 0 127 39t35 128v584h-188z" />
    <glyph glyph-name="uni0260" unicode="&#x260;" horiz-adv-x="1248" 
d="M606 -414q-195 0 -313.5 81t-138.5 214h182q14 -66 84 -105.5t186 -39.5q145 0 226.5 67.5t81.5 186.5v212h-16q-51 -89 -139 -137.5t-199 -48.5q-139 0 -240.5 67.5t-156.5 189t-55 282.5q0 162 55.5 284t157 190t239.5 68q113 0 202.5 -51.5t135.5 -138.5h16v348
q0 108 39 164t98 76.5t117 20.5q47 0 86 -11t61 -23v-139q-15 8 -41.5 15t-55.5 7q-48 0 -90 -24t-42 -110v-1250q0 -181 -129.5 -288t-350.5 -107zM598 168q150 0 235 105.5t85 281.5t-85.5 281.5t-234.5 105.5q-150 0 -231 -105.5t-81 -281.5t81 -281.5t231 -105.5z" />
    <glyph glyph-name="uni0261" unicode="&#x261;" horiz-adv-x="1248" 
d="M606 -414q-195 0 -313.5 81t-138.5 214h182q14 -66 84 -105.5t186 -39.5q145 0 226.5 67.5t81.5 186.5v212h-16q-51 -89 -139 -137.5t-199 -48.5q-139 0 -240.5 67.5t-156.5 189t-55 282.5q0 162 55.5 284t157 190t239.5 68q113 0 206.5 -51.5t139.5 -138.5h16v171h164
v-1097q0 -181 -129.5 -288t-350.5 -107zM598 168q150 0 235 105.5t85 281.5t-85.5 281.5t-234.5 105.5q-150 0 -231 -105.5t-81 -281.5t81 -281.5t231 -105.5z" />
    <glyph glyph-name="uni0262" unicode="&#x262;" horiz-adv-x="1300" 
d="M1158 455q0 -219 -128 -346.5t-354 -127.5q-159 0 -280.5 68t-189.5 194t-68 299q0 171 68 295t189 191.5t280 67.5q123 0 223.5 -45.5t166.5 -129.5t85 -198h-176q-31 107 -110 162.5t-189 55.5q-161 0 -260 -104.5t-99 -293.5q0 -191 100.5 -299t260.5 -108
q138 0 223.5 76.5t86.5 197.5v18h-290v149h461v-122z" />
    <glyph glyph-name="uni0263" unicode="&#x263;" horiz-adv-x="984" 
d="M492 -432q-114 0 -183 71t-69 165q0 71 30.5 141.5t71.5 161.5l67 146l-399 825h182l300 -640l300 640h182l-399 -825l67 -146q41 -91 71.5 -161.5t30.5 -141.5q0 -94 -69 -165t-183 -71zM492 -289q44 0 71 32.5t27 73.5q0 48 -28.5 111.5t-57.5 122.5l-12 26l-12 -26
q-28 -59 -57 -122.5t-29 -111.5q0 -41 27 -73.5t71 -32.5z" />
    <glyph glyph-name="uni0264" unicode="&#x264;" horiz-adv-x="1338" 
d="M30 724q-10 47 -10 92q0 91 39.5 153.5t102 95t130.5 32.5q78 0 133.5 -33.5t97 -86t76.5 -108.5l70 -111l69 111q35 56 76.5 108.5t97 86t133.5 33.5q68 0 130.5 -32.5t102.5 -95t40 -153.5q0 -45 -10 -92h-162q11 41 11 81q0 64 -35 98.5t-79 34.5q-65 0 -106.5 -54.5
t-85.5 -122.5l-93 -145l65 -104q53 -85 79 -153.5t26 -133.5q0 -113 -72.5 -179t-186.5 -66q-115 0 -187.5 66t-72.5 179q0 65 26 133.5t79 153.5l65 104l-93 145q-43 68 -84.5 122.5t-106.5 54.5q-43 0 -78.5 -34.5t-35.5 -98.5q0 -36 12 -81h-163zM565 229q0 -46 30 -74.5
t74 -28.5t73.5 28.5t29.5 74.5q0 48 -24.5 105t-61.5 115l-17 27l-18 -27q-37 -58 -61.5 -115t-24.5 -105z" />
    <glyph glyph-name="uni0265" unicode="&#x265;" horiz-adv-x="1216" 
d="M1044 1078v-1506h-172v598h-16q-40 -89 -124 -139t-208 -50q-171 0 -271.5 104.5t-100.5 294.5v698h172v-656q0 -286 249 -286q145 0 222 84t77 220v638h172z" />
    <glyph glyph-name="uni0266" unicode="&#x266;" horiz-adv-x="1216" 
d="M172 0v1255q0 108 39 164t98 76.5t117 20.5q47 0 86 -11t61 -23v-139q-15 8 -41.5 15t-55.5 7q-48 0 -90 -24t-42 -110v-323h16q41 89 124.5 139t207.5 50q171 0 271.5 -104.5t100.5 -294.5v-698h-172v656q0 286 -249 286q-145 0 -222 -83.5t-77 -220.5v-638h-172z" />
    <glyph glyph-name="uni0267" unicode="&#x267;" horiz-adv-x="1216" 
d="M172 0v1255q0 108 39 164t98 76.5t117 20.5q47 0 86 -11t61 -23v-139q-15 8 -41.5 15t-55.5 7q-48 0 -90 -24t-42 -110v-323h16q41 89 124.5 139t207.5 50q171 0 271.5 -104.5t100.5 -294.5v-807q0 -108 -39 -164t-97.5 -76.5t-117.5 -20.5q-46 0 -85.5 11t-61.5 23v139
q15 -8 41.5 -15t55.5 -7q48 0 90 24t42 110v741q0 286 -249 286q-145 0 -222 -83.5t-77 -220.5v-638h-172z" />
    <glyph glyph-name="uni0268" unicode="&#x268;" horiz-adv-x="504" 
d="M252 1286q-49 0 -84.5 35.5t-35.5 84.5q0 50 35.5 85t84.5 35q50 0 85 -35t35 -85q0 -49 -35 -84.5t-85 -35.5zM166 0v528h-126v142h126v408h172v-408h126v-142h-126v-528h-172z" />
    <glyph glyph-name="uni0269" unicode="&#x269;" horiz-adv-x="614" 
d="M162 1078h172v-754q0 -93 36.5 -137t121.5 -44q21 0 62 4v-145q-25 -5 -49.5 -7.5t-44.5 -2.5q-163 0 -230.5 70.5t-67.5 219.5v796z" />
    <glyph glyph-name="uni026A" unicode="&#x26a;" horiz-adv-x="834" 
d="M112 0v149h218v781h-218v148h610v-148h-218v-781h218v-149h-610z" />
    <glyph glyph-name="uni026B" unicode="&#x26b;" horiz-adv-x="815" 
d="M321 0v1506h172v-1506h-172zM666 936h129q1 -131 -61 -205.5t-165 -74.5q-60 0 -103 22t-77 50.5t-67 50t-73 21.5q-100 0 -100 -144h-129q-1 131 61 205.5t165 74.5q60 0 103 -21.5t77 -50t67 -50.5t73 -22q100 0 100 144z" />
    <glyph glyph-name="uni026C" unicode="&#x26c;" horiz-adv-x="814" 
d="M346 0v606h-22q-130 0 -222 64t-92 190q0 101 66 159.5t162 58.5q58 0 108 -34v462h172v-760h276v-140h-276v-606h-172zM318 746h28v50q0 72 -32 107t-74 35q-37 0 -58.5 -23t-21.5 -55q0 -48 43.5 -81t114.5 -33z" />
    <glyph glyph-name="uni026D" unicode="&#x26d;" horiz-adv-x="516" 
d="M426 -370q-58 0 -117 20.5t-98 76.5t-39 164v1615h172v-1591q0 -86 42 -110t90 -24q29 0 55.5 7t41.5 15v-139q-22 -12 -61 -23t-86 -11z" />
    <glyph glyph-name="uni026E" unicode="&#x26e;" horiz-adv-x="1369" 
d="M172 0v1443h174v-365h821v-129l-379 -443v-16q206 -19 323.5 -136.5t117.5 -287.5q0 -128 -57.5 -226.5t-164 -154t-253.5 -55.5q-141 0 -228.5 39t-123.5 64v162q78 -58 162 -85t162 -27q138 0 227 70t89 205q0 79 -39 146t-118.5 108t-202.5 41h-93v158l353 407v16
h-596v-934h-174z" />
    <glyph glyph-name="uni026F" unicode="&#x26f;" horiz-adv-x="1782" 
d="M1620 1078v-1078h-164v170h-16q-37 -90 -115 -139.5t-186 -49.5q-109 0 -184.5 52.5t-113.5 136.5h-16q-43 -85 -130.5 -137t-199.5 -52q-165 0 -254 91.5t-89 260.5v745h172v-705q0 -237 227 -237q113 0 181.5 73t68.5 176v693h172v-732q0 -96 61.5 -153t163.5 -57
q71 0 127.5 37t89.5 99t33 138v668h172z" />
    <glyph glyph-name="uni0270" unicode="&#x270;" horiz-adv-x="1782" 
d="M1620 1078v-1438h-172v530h-16q-37 -90 -111 -139.5t-182 -49.5q-109 0 -184.5 52.5t-113.5 136.5h-16q-43 -85 -130.5 -137t-199.5 -52q-165 0 -254 91.5t-89 260.5v745h172v-705q0 -237 227 -237q113 0 181.5 73t68.5 176v693h172v-732q0 -96 61.5 -153t163.5 -57
q71 0 127.5 37t89.5 99t33 138v668h172z" />
    <glyph glyph-name="uni0271" unicode="&#x271;" horiz-adv-x="1782" 
d="M162 0v1078h164v-170h16q37 90 115 139.5t186 49.5q110 0 185.5 -52.5t112.5 -136.5h16q44 86 131 137.5t199 51.5q165 0 254 -91t89 -261v-854q0 -108 -39 -164t-97.5 -76.5t-117.5 -20.5q-46 0 -85.5 11t-61.5 23v139q15 -8 41.5 -15t55.5 -7q48 0 90 24t42 110v790
q0 237 -227 237q-112 0 -181 -73t-69 -176v-693h-172v732q0 96 -61.5 153t-163.5 57q-70 0 -127 -37t-90 -99t-33 -138v-668h-172z" />
    <glyph glyph-name="uni0272" unicode="&#x272;" horiz-adv-x="1195" 
d="M80 -370q-46 0 -85.5 11t-61.5 23v139q15 -8 41.5 -15t55.5 -7q48 0 90 24t42 110v1163h164v-170h16q41 89 120.5 139t203.5 50q182 0 279.5 -103.5t97.5 -295.5v-698h-172v656q0 286 -254 286q-129 0 -206 -81t-77 -223v-747q0 -108 -39 -164t-97.5 -76.5t-117.5 -20.5z
" />
    <glyph glyph-name="uni0273" unicode="&#x273;" horiz-adv-x="1195" 
d="M162 0v1078h164v-170h16q41 89 120.5 139t203.5 50q182 0 279.5 -103.5t97.5 -295.5v-783q0 -86 42 -110t90 -24q29 0 55.5 7t41.5 15v-139q-22 -12 -61 -23t-86 -11q-58 0 -117 20.5t-98 76.5t-39 164v765q0 286 -254 286q-129 0 -206 -81t-77 -223v-638h-172z" />
    <glyph glyph-name="uni0274" unicode="&#x274;" horiz-adv-x="1247" 
d="M330 0h-145v1078h140l580 -806h12v806h145v-1078h-139l-580 805h-13v-805z" />
    <glyph glyph-name="uni0275" unicode="&#x275;" horiz-adv-x="1210" 
d="M605 -19q-230 0 -363.5 149.5t-133.5 408.5q0 260 133.5 409t363.5 149t363.5 -149t133.5 -409q0 -259 -133.5 -408.5t-363.5 -149.5zM605 942q-136 0 -217 -84t-98 -239h630q-17 155 -98 239t-217 84zM605 136q140 0 221.5 88.5t94.5 250.5h-632q13 -162 94.5 -250.5
t221.5 -88.5z" />
    <glyph glyph-name="uni0276" unicode="&#x276;" horiz-adv-x="1949" 
d="M1073 -1v172q-55 -90 -160 -141t-233 -51q-164 0 -286 68.5t-189 194t-67 295.5q0 171 67 297t189 194.5t287 68.5q130 0 232 -50t160 -141v171h722v-145h-557v-314h526v-141h-526v-333h557v-145h-722zM692 946q-171 0 -273.5 -110.5t-102.5 -298.5q0 -186 102.5 -296.5
t273.5 -110.5q170 0 270.5 110.5t100.5 296.5q0 188 -100.5 298.5t-270.5 110.5z" />
    <glyph glyph-name="uni0277" unicode="&#x277;" horiz-adv-x="1588" 
d="M118 449q0 123 42.5 239t127 208.5t211 146.5t295.5 54t295.5 -54t211 -146.5t127 -208.5t42.5 -239q0 -207 -97 -337t-277 -130q-106 0 -185.5 63t-114.5 180h-5q-34 -117 -113.5 -180t-185.5 -63q-120 0 -203.5 63.5t-127 169.5t-43.5 234zM708 428v213h172v-213
q0 -127 51 -206t150 -79q79 0 125 43.5t66 116.5t20 162q0 120 -50.5 229t-160 178.5t-287.5 69.5q-177 0 -287 -69.5t-160.5 -178.5t-50.5 -229q0 -89 20 -162t66 -116.5t125 -43.5q99 0 150 79t51 206z" />
    <glyph glyph-name="uni0278" unicode="&#x278;" horiz-adv-x="1470" 
d="M652 -360v342q-181 13 -304.5 87t-186.5 195t-63 275q0 176 73.5 296.5t198.5 185.5t282 75v261h166v-261q157 -10 282 -75t198.5 -185.5t73.5 -296.5q0 -154 -63 -275t-186 -195t-305 -87v-342h-166zM818 126q192 22 286 135t94 278q0 184 -104.5 288.5t-275.5 122.5
v-824zM652 126v824q-171 -18 -275.5 -122.5t-104.5 -288.5q0 -165 94 -278t286 -135z" />
    <glyph glyph-name="uni0279" unicode="&#x279;" horiz-adv-x="780" 
d="M618 1078v-1078h-164v160h-16q-24 -79 -108 -129t-191 -50q-49 0 -86 5v172q11 -3 48 -6.5t62 -3.5q123 0 203 74t80 188v668h172z" />
    <glyph glyph-name="uni027A" unicode="&#x27a;" horiz-adv-x="780" 
d="M618 1506v-1506h-164v160h-16q-24 -79 -108 -129t-191 -50q-49 0 -86 5v172q11 -3 48 -6.5t62 -3.5q123 0 203 74t80 188v1096h172z" />
    <glyph glyph-name="uni027B" unicode="&#x27b;" horiz-adv-x="780" 
d="M618 1078v-1163q0 -86 42 -110t90 -24q29 0 55.5 7t41.5 15v-139q-22 -12 -61 -23t-86 -11q-58 0 -117 20.5t-98 76.5t-39 164v269h-16q-24 -79 -104 -129t-187 -50q-49 0 -86 5v172q11 -3 48 -6.5t62 -3.5q123 0 203 74t80 188v668h172z" />
    <glyph glyph-name="uni027C" unicode="&#x27c;" horiz-adv-x="780" 
d="M162 -360v1438h164v-160h16q24 79 108 129t191 50q49 0 86 -5v-172q-10 3 -47 6.5t-63 3.5q-123 0 -203 -74t-80 -188v-1028h-172z" />
    <glyph glyph-name="uni027D" unicode="&#x27d;" horiz-adv-x="780" 
d="M416 -370q-58 0 -117 20.5t-98 76.5t-39 164v1187h164v-160h16q24 79 108 129t191 50q49 0 86 -5v-172q-10 3 -47 6.5t-63 3.5q-123 0 -203 -74t-80 -188v-753q0 -86 42 -110t90 -24q29 0 55.5 7t41.5 15v-139q-22 -12 -61 -23t-86 -11z" />
    <glyph glyph-name="uni027E" unicode="&#x27e;" horiz-adv-x="606" 
d="M162 0v836q0 108 39 164t98 76.5t117 20.5q47 0 86 -11t61 -23v-139q-15 8 -41.5 15t-55.5 7q-48 0 -90 -24t-42 -110v-812h-172z" />
    <glyph glyph-name="uni027F" unicode="&#x27f;" horiz-adv-x="606" 
d="M444 0h-172v812q0 86 -42 110t-90 24q-29 0 -55.5 -7t-41.5 -15v139q22 12 61.5 23t85.5 11q59 0 117.5 -20.5t97.5 -76.5t39 -164v-836z" />
    <glyph glyph-name="uni0280" unicode="&#x280;" horiz-adv-x="1170" 
d="M359 406v-406h-174v1078h453q174 0 277.5 -90.5t103.5 -245.5q0 -106 -59.5 -188.5t-165.5 -117.5l259 -436h-201l-236 406h-257zM359 923v-366h261q105 0 162.5 47.5t57.5 134.5q0 86 -60.5 135t-164.5 49h-256z" />
    <glyph glyph-name="uni0281" unicode="&#x281;" horiz-adv-x="1170" 
d="M811 672v406h174v-1078h-453q-174 0 -277.5 91t-103.5 245q0 107 59.5 189.5t165.5 116.5l-259 436h201l236 -406h257zM811 155v366h-261q-105 0 -162.5 -47.5t-57.5 -134.5q0 -85 60.5 -134.5t164.5 -49.5h256z" />
    <glyph glyph-name="uni0282" unicode="&#x282;" horiz-adv-x="1072" 
d="M285 75h-15v-160q0 -57 24.5 -86t60 -38.5t67.5 -9.5q29 0 55.5 7t41.5 15v-139q-22 -12 -61 -23t-86 -11q-58 0 -119.5 20.5t-103 76.5t-41.5 164v394h167q29 -76 94.5 -117.5t168.5 -41.5q109 0 179 47t70 121q0 110 -171 152l-185 45q-151 37 -222.5 106t-71.5 186
q0 90 53 161t144 112t205 41q170 0 279.5 -78t126.5 -211h-170q-17 65 -78 104t-159 39q-96 0 -162 -44.5t-66 -116.5q0 -105 187 -151l166 -40q152 -37 226.5 -106.5t74.5 -185.5q0 -99 -62 -172.5t-157.5 -113.5t-195.5 -40q-73 0 -144.5 23t-119.5 71z" />
    <glyph glyph-name="uni0283" unicode="&#x283;" horiz-adv-x="586" 
d="M75 -219q48 0 90 24t42 110v1340q0 108 39 164t98 76.5t117 20.5q47 0 86 -11t61 -23v-139q-15 8 -41.5 15t-55.5 7q-48 0 -90 -24t-42 -110v-1340q0 -108 -39 -164t-97.5 -76.5t-117.5 -20.5q-46 0 -85.5 11t-61.5 23v139q15 -8 41.5 -15t55.5 -7z" />
    <glyph glyph-name="uni0284" unicode="&#x284;" horiz-adv-x="634" 
d="M99 -219q48 0 90 24t42 110v613h-207v142h207v585q0 108 39 164t98 76.5t117 20.5q47 0 86 -11t61 -23v-139q-15 8 -41.5 15t-55.5 7q-48 0 -90 -24t-42 -110v-561h207v-142h-207v-637q0 -108 -39 -164t-97.5 -76.5t-117.5 -20.5q-46 0 -85.5 11t-61.5 23v139
q15 -8 41.5 -15t55.5 -7z" />
    <glyph glyph-name="uni0285" unicode="&#x285;" horiz-adv-x="590" 
d="M463 -370q-58 0 -117 20.5t-98 76.5t-39 164v921q0 86 -42 110t-90 24q-29 0 -55.5 -7t-41.5 -15v139q22 12 61.5 23t85.5 11q59 0 117.5 -20.5t97.5 -76.5t39 -164v-921q0 -86 42 -110t90 -24q29 0 55.5 7t41.5 15v-139q-22 -12 -61 -23t-86 -11z" />
    <glyph glyph-name="uni0286" unicode="&#x286;" horiz-adv-x="791" 
d="M751 146v-146h-230v-12q0 -160 -78 -243t-201 -83q-103 0 -170 63.5t-67 160.5q0 126 89.5 193t227.5 67h27v1109q0 108 39 164t98 76.5t117 20.5q47 0 86 -11t61 -23v-139q-15 8 -41.5 15t-55.5 7q-48 0 -90 -24t-42 -110v-1085h230zM246 -196q44 0 73.5 35t29.5 107v54
h-33q-79 0 -116 -32t-37 -80q0 -31 23 -57.5t60 -26.5z" />
    <glyph glyph-name="uni0287" unicode="&#x287;" horiz-adv-x="744" 
d="M510 -269h-172v279h-240v144h240v610q0 95 -38 138t-122 43q-23 0 -39.5 -1t-40.5 -3v145q25 4 50 7t51 3q166 0 238.5 -67t72.5 -221v-654h174v-144h-174v-279z" />
    <glyph glyph-name="uni0288" unicode="&#x288;" horiz-adv-x="744" 
d="M488 -370q-58 0 -117 20.5t-98 76.5t-39 164v1043h-174v144h174v279h172v-279h240v-144h-240v-1019q0 -86 42 -110t90 -24q29 0 55.5 7t41.5 15v-139q-22 -12 -61 -23t-86 -11z" />
    <glyph glyph-name="uni0289" unicode="&#x289;" horiz-adv-x="1425" 
d="M80 528v142h189v408h172v-408h538v408h172v-408h194v-142h-194v-528h-164v169h-16q-40 -90 -125 -139t-209 -49q-181 0 -274.5 104t-93.5 295v148h-189zM441 422q0 -145 57.5 -214.5t186.5 -69.5q143 0 218.5 80t75.5 222v88h-538v-106z" />
    <glyph glyph-name="uni028A" unicode="&#x28a;" horiz-adv-x="1274" 
d="M637 -19q-159 0 -280 66t-189 180t-68 258q0 142 65 257t186 180v12h-251v144h433v-183q-134 -65 -195 -166t-61 -235q0 -159 97 -260.5t263 -101.5q165 0 262.5 101.5t97.5 260.5q0 134 -61 235t-195 166v183h433v-144h-251v-12q121 -65 186 -180t65 -257
q0 -144 -68 -258t-189 -180t-280 -66z" />
    <glyph glyph-name="uni028B" unicode="&#x28b;" horiz-adv-x="1157" 
d="M566 -18q-203 0 -310.5 115.5t-107.5 338.5v642h172v-636q0 -160 67 -233.5t185 -73.5q86 0 141.5 38.5t88 103.5t45.5 144.5t13 160.5q0 154 -36 232t-87 105.5t-96 27.5q-27 0 -47 -5.5t-28 -9.5v138q17 8 53.5 17.5t76.5 9.5q96 0 173.5 -50t123.5 -164t46 -305
q0 -186 -60 -319.5t-166.5 -205t-246.5 -71.5z" />
    <glyph glyph-name="uni028C" unicode="&#x28c;" horiz-adv-x="1110" 
d="M68 0l399 1078h176l399 -1078h-184l-295 888h-16l-295 -888h-184z" />
    <glyph glyph-name="uni028D" unicode="&#x28d;" horiz-adv-x="1586" 
d="M68 0l302 1078h175l241 -834h16l240 834h174l302 -1078h-174l-212 862h-16l-241 -862h-165l-241 862h-16l-212 -862h-173z" />
    <glyph glyph-name="uni028E" unicode="&#x28e;" horiz-adv-x="1112" 
d="M858 1468q41 0 77 -6v-147q-16 3 -35 4t-37 1q-74 0 -119 -39.5t-79 -137.5l-20 -64l399 -1079h-186l-296 887h-16l-295 -887h-183l421 1144q46 125 94.5 195.5t114 99.5t160.5 29z" />
    <glyph glyph-name="uni028F" unicode="&#x28f;" horiz-adv-x="1180" 
d="M677 0h-174v425l-407 653h194l294 -463h13l293 463h194l-407 -653v-425z" />
    <glyph glyph-name="uni0290" unicode="&#x290;" horiz-adv-x="1104" 
d="M137 0v126l622 792v16h-621v144h826v-129l-619 -789v-16h592v-229q0 -86 42 -110t90 -24q29 0 55.5 7t41.5 15v-139q-22 -12 -61 -23t-86 -11q-58 0 -117 20.5t-98 76.5t-39 164v109h-628z" />
    <glyph glyph-name="uni0291" unicode="&#x291;" horiz-adv-x="1132" 
d="M615 -284v284h-478v126l622 792v16h-621v144h826v-129l-619 -789v-16h270v20q0 131 71.5 221.5t197.5 90.5q96 0 162 -60t66 -156q0 -108 -87.5 -184t-248.5 -76h-7v-284h-154zM769 178v-34h30q77 0 118 31.5t41 76.5q0 39 -23 59.5t-55 20.5q-46 0 -78.5 -41t-32.5 -113
z" />
    <glyph glyph-name="uni0292" unicode="&#x292;" horiz-adv-x="1181" 
d="M566 -370q-199 0 -324 110t-134 294h174q11 -115 89.5 -182t199.5 -67q139 0 211 75.5t72 187.5q0 126 -88 215.5t-272 89.5h-93v158l353 407v16h-591v144h816v-129l-379 -443v-16q206 -19 323.5 -136.5t117.5 -287.5q0 -128 -57.5 -226.5t-164 -154t-253.5 -55.5z" />
    <glyph glyph-name="uni0293" unicode="&#x293;" horiz-adv-x="1167" 
d="M1027 66q0 -105 -50 -194t-144.5 -148t-227.5 -73v-266h-154v267q-148 17 -245.5 96t-97.5 195q0 99 68 160.5t167 61.5q134 0 198 -94t64 -234v-39q107 19 171 86t64 174q0 132 -88 213.5t-272 81.5h-93v158l353 407v16h-591v144h816v-129l-379 -443v-16
q206 -19 323.5 -136.5t117.5 -287.5zM266 -65q0 -52 45.5 -89.5t139.5 -49.5v55q0 74 -28 120t-76 46q-32 0 -56.5 -21t-24.5 -61z" />
    <glyph glyph-name="uni0294" unicode="&#x294;" horiz-adv-x="1050" 
d="M80 1066q6 108 55.5 196t145 140t235.5 52q126 0 221.5 -47.5t149 -129.5t53.5 -185q0 -118 -56.5 -202.5t-152.5 -142.5q-95 -56 -129 -106.5t-34 -129.5v-511h-175v538q0 99 48.5 171t151.5 133q87 53 124 107t37 134q0 93 -66.5 154t-178.5 61q-113 0 -181.5 -62.5
t-76.5 -169.5h-171z" />
    <glyph glyph-name="uni0295" unicode="&#x295;" horiz-adv-x="1050" 
d="M970 1066h-171q-8 107 -76.5 169.5t-181.5 62.5q-112 0 -178.5 -61t-66.5 -154q0 -80 37 -134t124 -107q103 -61 151.5 -133t48.5 -171v-538h-175v511q0 79 -34 129.5t-129 106.5q-96 58 -152.5 142.5t-56.5 202.5q0 103 53.5 185t149 129.5t221.5 47.5q141 0 236 -52
t145 -140t55 -196z" />
    <glyph glyph-name="uni0296" unicode="&#x296;" horiz-adv-x="1050" 
d="M80 377h171q8 -107 76.5 -169.5t181.5 -62.5q112 0 178.5 61t66.5 154q0 80 -37 134t-124 107q-103 62 -151.5 133.5t-48.5 170.5v538h175v-511q0 -79 34 -129.5t129 -106.5q96 -58 152.5 -142.5t56.5 -202.5q0 -103 -53.5 -185t-149 -129.5t-221.5 -47.5
q-140 0 -235.5 52t-145 140t-55.5 196z" />
    <glyph glyph-name="uni0297" unicode="&#x297;" horiz-adv-x="1160" 
d="M287 348q0 -278 95 -420.5t240 -142.5q107 0 180 53t95 150h171q-13 -106 -74.5 -186.5t-158 -126t-214.5 -45.5q-154 0 -269 74.5t-179.5 233t-64.5 410.5q0 254 73.5 420t195.5 247.5t267 81.5q130 0 220 -51t140.5 -134t61.5 -179h-170q-19 89 -81.5 149t-177.5 60
q-168 0 -259 -156t-91 -438z" />
    <glyph glyph-name="uni0298" unicode="&#x298;" horiz-adv-x="1580" 
d="M790 -34q-207 0 -355 92.5t-227.5 262.5t-79.5 401q0 232 80.5 401.5t229 261.5t352.5 92q205 0 353.5 -92.5t228.5 -261.5t80 -401q0 -230 -79.5 -400t-228 -263t-354.5 -93zM790 132q148 0 255 73t164.5 205.5t57.5 311.5q0 181 -58 313t-164.5 204t-254.5 72
q-147 0 -254 -72t-165 -204t-58 -313q0 -179 57 -311.5t163.5 -205.5t256.5 -73zM790 592q-53 0 -91.5 38.5t-38.5 91.5q0 54 38.5 92t91.5 38q54 0 92 -38t38 -92q0 -53 -38 -91.5t-92 -38.5z" />
    <glyph glyph-name="uni0299" unicode="&#x299;" horiz-adv-x="1173" 
d="M655 0h-470v1078h460q162 0 254 -72t92 -197q0 -85 -58 -151.5t-144 -79.5v-13q117 -10 188.5 -81.5t71.5 -177.5q0 -142 -104.5 -224t-289.5 -82zM359 929v-306h215q243 0 243 153q0 72 -55.5 112.5t-156.5 40.5h-246zM359 149h262q249 0 249 171q0 167 -260 167h-251
v-338z" />
    <glyph glyph-name="uni029A" unicode="&#x29a;" horiz-adv-x="1264" 
d="M550 -19q-135 0 -234 42t-153.5 115t-54.5 166q0 81 47 142t141 92v4q-94 32 -139 93.5t-45 143.5q0 93 54.5 165t154 113t233.5 41q196 0 317.5 -78.5t178 -206t56.5 -273.5q0 -145 -58.5 -273t-181.5 -207t-316 -79zM671 467h-137q-115 0 -185.5 -44t-70.5 -127
q0 -68 68.5 -114t198.5 -46q129 0 214 53.5t127 145.5t42 205q0 114 -42.5 205.5t-127.5 144.5t-213 53q-130 0 -196.5 -46t-66.5 -116q0 -80 68.5 -122.5t183.5 -42.5h137v-149z" />
    <glyph glyph-name="uni029B" unicode="&#x29b;" horiz-adv-x="1294" 
d="M1158 455q0 -219 -128 -346.5t-354 -127.5q-159 0 -280.5 68t-189.5 194t-68 299q0 171 69 295t184 191.5t254 67.5q219 0 321 -152h12v311q0 108 39 164t98 76.5t117 20.5q47 0 86 -11t61 -23v-139q-15 8 -41.5 15t-55.5 7q-48 0 -90 -24t-42 -110v-508h-176
q-31 107 -110 162.5t-189 55.5q-161 0 -260 -104.5t-99 -293.5q0 -191 100.5 -299t260.5 -108q138 0 223.5 76.5t86.5 197.5v18h-290v149h461v-122z" />
    <glyph glyph-name="uni029C" unicode="&#x29c;" horiz-adv-x="1315" 
d="M1130 0h-174v468h-597v-468h-174v1078h174v-448h597v448h174v-1078z" />
    <glyph glyph-name="uni029D" unicode="&#x29d;" horiz-adv-x="797" 
d="M440 1286q-49 0 -84.5 35.5t-35.5 84.5q0 50 35.5 85t84.5 35q50 0 85 -35t35 -85q0 -49 -35 -84.5t-85 -35.5zM767 146v-146h-241v-8q0 -160 -78 -243t-201 -83q-103 0 -170 63.5t-67 160.5q0 126 89.5 191t227.5 65h27v932h172v-932h241zM251 -192q44 0 73.5 35
t29.5 107v50h-33q-79 0 -116 -30t-37 -78q0 -31 23 -57.5t60 -26.5z" />
    <glyph glyph-name="uni029E" unicode="&#x29e;" horiz-adv-x="1112" 
d="M752 471l-468 -471h-211l464 462l-495 616h219l404 -505l103 96v409h172v-1506h-172v899h-16z" />
    <glyph glyph-name="uni029F" unicode="&#x29f;" horiz-adv-x="1023" 
d="M901 164v-164h-716v1078h174v-914h542z" />
    <glyph glyph-name="uni02A0" unicode="&#x2a0;" horiz-adv-x="1248" 
d="M559 1097q110 0 200.5 -54t138.5 -145h16v357q0 108 39 164t98 76.5t117 20.5q47 0 86 -11t61 -23v-139q-15 8 -41.5 15t-55.5 7q-48 0 -90 -24t-42 -110v-1591h-174v522h-16q-106 -181 -337 -181q-137 0 -238.5 68.5t-157 194t-55.5 295.5q0 169 56 294.5t157.5 194.5
t237.5 69zM598 136q148 0 233.5 108.5t85.5 294.5q0 185 -86 294t-232 109q-147 0 -230 -107t-83 -296q0 -190 82.5 -296.5t229.5 -106.5z" />
    <glyph glyph-name="uni02A1" unicode="&#x2a1;" horiz-adv-x="1050" 
d="M206 242v142h187v154q0 99 48.5 171t151.5 133q87 53 124 107t37 134q0 93 -66.5 154t-178.5 61q-113 0 -181.5 -62.5t-76.5 -169.5h-171q6 108 55.5 196t145 140t235.5 52q126 0 221.5 -47.5t149 -129.5t53.5 -185q0 -118 -56.5 -202.5t-152.5 -142.5
q-95 -56 -129 -106.5t-34 -129.5v-127h188v-142h-188v-242h-175v242h-187z" />
    <glyph glyph-name="uni02A2" unicode="&#x2a2;" horiz-adv-x="1054" 
d="M879 273h-194v-273h-175v273h-194v139h194v99q0 79 -34 129.5t-129 106.5q-96 58 -152.5 142.5t-56.5 202.5q0 103 53.5 185t149 129.5t221.5 47.5q141 0 236 -52t145 -140t55 -196h-171q-8 107 -76.5 169.5t-181.5 62.5q-112 0 -178.5 -61t-66.5 -154q0 -80 37 -134
t124 -107q103 -61 151.5 -133t48.5 -171v-126h194v-139z" />
    <glyph glyph-name="uni02A3" unicode="&#x2a3;" horiz-adv-x="2084" 
d="M561 -19q-138 0 -240 69t-157.5 194.5t-55.5 294.5t56 294.5t158 194.5t239 69q113 0 202.5 -50t135.5 -139h15v598h172v-428h838v-129l-553 -789v-16h576v-144h-770v126l557 792v16h-648v-934h-164v172h-16q-51 -90 -142 -140.5t-203 -50.5zM601 942q-147 0 -231 -107.5
t-84 -295.5q0 -189 83.5 -296t231.5 -107q147 0 232 108t85 295q0 185 -85.5 294t-231.5 109z" />
    <glyph glyph-name="uni02A4" unicode="&#x2a4;" horiz-adv-x="2109" 
d="M561 -19q-138 0 -240 69t-157.5 194.5t-55.5 294.5t56 294.5t158 194.5t239 69q113 0 202.5 -50t135.5 -139h15v598h172v-428h821v-129l-379 -443v-16q206 -19 323.5 -136.5t117.5 -287.5q0 -128 -57.5 -226.5t-164 -154t-253.5 -55.5q-141 0 -228.5 39t-123.5 64v162
q78 -58 162 -85t162 -27q138 0 227 70t89 205q0 79 -39 146t-118.5 108t-202.5 41h-93v158l353 407v16h-596v-934h-164v172h-16q-51 -90 -142 -140.5t-203 -50.5zM601 942q-147 0 -231 -107.5t-84 -295.5q0 -189 83.5 -296t231.5 -107q147 0 232 108t85 295q0 185 -85.5 294
t-231.5 109z" />
    <glyph glyph-name="uni02A5" unicode="&#x2a5;" horiz-adv-x="2142" 
d="M561 -19q-138 0 -240 69t-157.5 194.5t-55.5 294.5t56 294.5t158 194.5t239 69q113 0 202.5 -50t135.5 -139h15v598h172v-428h888v-129l-619 -789v-16h270v20q0 131 71.5 221.5t197.5 90.5q96 0 162 -60t66 -156q0 -108 -87.5 -184t-248.5 -76h-7v-284h-154v284h-478v126
l622 792v16h-683v-934h-164v172h-16q-51 -90 -142 -140.5t-203 -50.5zM601 942q-147 0 -231 -107.5t-84 -295.5q0 -189 83.5 -296t231.5 -107q147 0 232 108t85 295q0 185 -85.5 294t-231.5 109zM1779 178v-34h30q77 0 118 31.5t41 76.5q0 39 -23 59.5t-55 20.5
q-46 0 -78.5 -41t-32.5 -113z" />
    <glyph glyph-name="uni02A6" unicode="&#x2a6;" horiz-adv-x="1642" 
d="M707 783q0 85 50 156h-351v-615q0 -95 38 -138t122 -43q23 0 39.5 1t40.5 3v-145q-25 -4 -50 -7t-51 -3q-166 0 -238.5 67t-72.5 221v654h-174v144h174v279h172v-279h560q68 19 143 19q170 0 279.5 -78t126.5 -211h-170q-17 65 -78 104t-159 39q-96 0 -162 -44.5
t-66 -116.5q0 -105 187 -151l166 -40q152 -37 226.5 -106.5t74.5 -185.5q0 -96 -57 -169.5t-154.5 -115t-220.5 -41.5q-180 0 -295 80t-129 214h177q22 -68 86 -108.5t167 -40.5q109 0 179 47t70 121q0 110 -171 152l-185 45q-151 37 -222.5 106t-71.5 186z" />
    <glyph glyph-name="uni02A7" unicode="&#x2a7;" horiz-adv-x="1215" 
d="M704 -219q48 0 90 24t42 110v1024h-430v-615q0 -95 38 -138t122 -43q23 0 39.5 1t40.5 3v-145q-25 -4 -50 -7t-51 -3q-166 0 -238.5 67t-72.5 221v654h-174v144h174v279h172v-279h430v177q0 108 39 164t98 76.5t117 20.5q47 0 86 -11t61 -23v-139q-15 8 -41.5 15t-55.5 7
q-48 0 -90 -24t-42 -110v-1340q0 -108 -39 -164t-97.5 -76.5t-117.5 -20.5q-46 0 -85.5 11t-61.5 23v139q15 -8 41.5 -15t55.5 -7z" />
    <glyph glyph-name="uni02A8" unicode="&#x2a8;" horiz-adv-x="1706" 
d="M1280 -285h-154v270q-128 14 -232 78t-165 183t-61 297q0 123 33 223.5t95 172.5h-390v-615q0 -95 38 -138t122 -43q23 0 39.5 1t40.5 3v-145q-25 -4 -50 -7t-51 -3q-166 0 -238.5 67t-72.5 221v654h-174v144h174v279h172v-279h610q69 19 146 19q131 0 227 -47
t153 -126.5t72 -175.5h-174q-21 80 -91.5 137t-186.5 57q-146 0 -231 -108.5t-85 -290.5q0 -180 68 -289.5t212 -132.5v54q0 134 66 227t196 93q99 0 167 -61.5t68 -160.5q0 -116 -97.5 -193t-245.5 -95v-270zM1280 189v-70q98 13 141.5 53.5t43.5 92.5q0 41 -24.5 61.5
t-56.5 20.5q-48 0 -76 -42t-28 -116z" />
    <glyph glyph-name="uni02A9" unicode="&#x2a9;" horiz-adv-x="1815" 
d="M234 0v934h-179v144h179v120q0 318 313 318q65 0 116 -10v-140q-16 3 -37 4t-44 1q-93 0 -134.5 -44.5t-41.5 -133.5v-115h540v-170h16q41 89 120.5 139t203.5 50q182 0 279.5 -103.5t97.5 -295.5v-807q0 -108 -39 -164t-97.5 -76.5t-117.5 -20.5q-46 0 -85.5 11
t-61.5 23v139q15 -8 41.5 -15t55.5 -7q48 0 90 24t42 110v741q0 286 -254 286q-129 0 -206 -81t-77 -223v-638h-172v939h-376v-939h-172z" />
    <glyph glyph-name="uni02AA" unicode="&#x2aa;" horiz-adv-x="1522" 
d="M587 788q0 88 53 158t144 110.5t205 40.5q170 0 279.5 -76.5t126.5 -207.5h-170q-17 63 -78 102t-159 39q-96 0 -162 -44t-66 -115q0 -104 187 -148l166 -39q152 -37 226.5 -105t74.5 -182q0 -95 -57 -167.5t-154.5 -113t-219.5 -40.5h-811v1506h172v-1364h274
q-25 32 -40 71t-20 96h177q44 -166 253 -166q109 0 179 46t70 119q0 109 -171 149l-185 44q-151 37 -222.5 104.5t-71.5 182.5z" />
    <glyph glyph-name="uni02AB" unicode="&#x2ab;" horiz-adv-x="1342" 
d="M172 0v1506h172v-428h838v-129l-553 -789v-16h576v-144h-770v126l557 792v16h-648v-934h-172z" />
    <glyph glyph-name="uni02AC" unicode="&#x2ac;" horiz-adv-x="1135" 
d="M1088 718l-207 -718h-152l-157 526h-11l-156 -526h-151l-207 718h149l135 -545h11l156 545h140l156 -545h12l135 545h147zM1088 1443l-207 -718h-152l-157 526h-11l-156 -526h-151l-207 718h149l135 -545h11l156 545h140l156 -545h12l135 545h147z" />
    <glyph glyph-name="uni02AD" unicode="&#x2ad;" horiz-adv-x="844" 
d="M784 1040v-370h-132v248h-460v-248h-132v370h724zM784 370v-370h-132v248h-460v-248h-132v370h724z" />
    <glyph glyph-name="uni02AE" unicode="&#x2ae;" horiz-adv-x="1200" 
d="M1028 1040v-1387h-174v513h-4q-43 -87 -122 -135.5t-198 -48.5q-163 0 -259.5 106t-96.5 280v398q0 79 -40.5 107t-85.5 28q-28 0 -52 -6t-36 -11v136q17 9 54.5 20t77.5 11q56 0 115 -23t100 -79.5t41 -158.5v-390q0 -124 60.5 -194t175.5 -70q130 0 200 81.5t70 216.5
v606h174z" />
    <glyph glyph-name="uni02AF" unicode="&#x2af;" horiz-adv-x="1160" 
d="M1028 1040v-1117q0 -79 40.5 -107t85.5 -28q28 0 52 6t36 11v-136q-17 -9 -54 -20t-78 -11q-55 0 -114.5 23t-100.5 79.5t-41 158.5v267h-4q-43 -87 -122 -135.5t-198 -48.5q-163 0 -259.5 106t-96.5 280v398q0 79 -40.5 107t-85.5 28q-28 0 -52 -6t-36 -11v136
q17 9 54.5 20t77.5 11q56 0 115 -23t100 -79.5t41 -158.5v-390q0 -124 60.5 -194t175.5 -70q130 0 200 81.5t70 216.5v606h174z" />
    <glyph glyph-name="uni02B0" unicode="&#x2b0;" horiz-adv-x="870" 
d="M119 733v998h146v-395h11q28 60 86.5 94t143.5 34q120 0 189.5 -69.5t69.5 -197.5v-464h-147v427q0 171 -162 171q-91 0 -140.5 -49.5t-49.5 -129.5v-419h-147z" />
    <glyph glyph-name="uni02B1" unicode="&#x2b1;" horiz-adv-x="855" 
d="M119 733v811q0 104 56 147t134 43q32 0 61.5 -6.5t48.5 -15.5v-118q-12 5 -29.5 9.5t-36.5 4.5q-34 0 -60.5 -16.5t-26.5 -66.5v-189h11q28 60 86 94t143 34q120 0 189.5 -69.5t69.5 -197.5v-464h-147v427q0 171 -162 171q-91 0 -140.5 -49.5t-49.5 -129.5v-419h-147z
" />
    <glyph glyph-name="uni02B2" unicode="&#x2b2;" horiz-adv-x="370" 
d="M187 1574q-38 0 -66 27.5t-28 66.5t28 66.5t66 27.5t65.5 -27.5t27.5 -66.5t-27.5 -66.5t-65.5 -27.5zM259 1451v-747q0 -216 -242 -216h-17t-15 1v121h20q60 0 83.5 22.5t23.5 73.5v745h147z" />
    <glyph glyph-name="uni02B4" unicode="&#x2b4;" horiz-adv-x="571" 
d="M534 1463v-718h-141v111h-12q-16 -53 -72.5 -88t-130.5 -35q-16 0 -35 1.5t-31 4.5v143q9 -3 36 -6t47 -3q84 0 138 46.5t54 122.5v421h147z" />
    <glyph glyph-name="uni02B7" unicode="&#x2b7;" horiz-adv-x="1135" 
d="M1088 1451l-207 -718h-152l-157 526h-11l-156 -526h-151l-207 718h149l135 -545h11l156 545h140l156 -545h12l135 545h147z" />
    <glyph glyph-name="uni02B9" unicode="&#x2b9;" horiz-adv-x="494" 
d="M285 864h-76l-63 579h202z" />
    <glyph glyph-name="uni02BA" unicode="&#x2ba;" horiz-adv-x="912" 
d="M285 864h-76l-63 579h202zM703 864h-76l-63 579h202z" />
    <glyph glyph-name="uni02BB" unicode="&#x2bb;" horiz-adv-x="518" 
d="M251 1557h127l-82 -377h-182z" />
    <glyph glyph-name="quoteright" unicode="&#x2019;" horiz-adv-x="594" 
d="M269 904h-125l111 539h195z" />
    <glyph glyph-name="quoteright" unicode="&#x2bc;" horiz-adv-x="594" 
d="M269 904h-125l111 539h195z" />
    <glyph glyph-name="uni02BE" unicode="&#x2be;" horiz-adv-x="366" 
d="M50 1130v132q47 0 71.5 24.5t24.5 58.5q0 35 -24.5 59t-71.5 24v132q96 0 156 -63t60 -152q0 -88 -60 -151.5t-156 -63.5z" />
    <glyph glyph-name="circumflex" unicode="&#x2c6;" horiz-adv-x="1024" 
d="M613 1568l242 -340h-188l-147 227h-16l-147 -227h-188l242 340h202z" />
    <glyph glyph-name="caron" unicode="&#x2c7;" horiz-adv-x="1024" 
d="M411 1228l-242 340h188l147 -227h16l147 227h188l-242 -340h-202z" />
    <glyph glyph-name="uni02C8" unicode="&#x2c8;" horiz-adv-x="538" 
d="M349 904h-160v539h160v-539z" />
    <glyph glyph-name="uni02CC" unicode="&#x2cc;" horiz-adv-x="538" 
d="M349 -541h-160v539h160v-539z" />
    <glyph glyph-name="uni02D0" unicode="&#x2d0;" horiz-adv-x="520" 
d="M452 1078l-192 -327l-192 327h384zM68 0l192 327l192 -327h-384z" />
    <glyph glyph-name="uni02D1" unicode="&#x2d1;" horiz-adv-x="520" 
d="M452 1078l-192 -327l-192 327h384z" />
    <glyph glyph-name="breve" unicode="&#x2d8;" horiz-adv-x="1024" 
d="M163 1568h154q0 -94 46.5 -153t148.5 -59t148.5 59t46.5 153h154q0 -150 -89 -245t-260 -95t-260 95t-89 245z" />
    <glyph glyph-name="dotaccent" unicode="&#x2d9;" horiz-adv-x="1024" 
d="M512 1286q-49 0 -84.5 35.5t-35.5 84.5q0 50 35.5 85t84.5 35q50 0 85 -35t35 -85q0 -49 -35 -84.5t-85 -35.5z" />
    <glyph glyph-name="ring" unicode="&#x2da;" horiz-adv-x="1024" 
d="M512 1228q-96 0 -164 66t-68 163t68 163t164 66t164 -66t68 -163t-68 -163t-164 -66zM512 1334q53 0 87.5 35.5t34.5 87.5q0 53 -34.5 88t-87.5 35q-52 0 -87 -35t-35 -88q0 -52 35 -87.5t87 -35.5z" />
    <glyph glyph-name="ogonek" unicode="&#x2db;" horiz-adv-x="1024" 
d="M513 -435q-89 0 -160.5 47t-71.5 145q0 66 41 133t131 130l164 -20q-63 -38 -115 -87t-52 -110q0 -44 28.5 -69t78.5 -25q33 0 69 10v-135q-55 -19 -113 -19z" />
    <glyph glyph-name="tilde" unicode="&#x2dc;" horiz-adv-x="1024" 
d="M636 1235q-61 0 -96.5 22.5t-58.5 52.5t-45 52.5t-56 22.5q-36 0 -56 -34.5t-20 -119.5h-142q0 137 57.5 212.5t163.5 75.5q60 0 96.5 -23.5t61 -55t47.5 -55t56 -23.5q41 0 58.5 37.5t17.5 122.5h142q0 -136 -58.5 -211.5t-167.5 -75.5z" />
    <glyph glyph-name="hungarumlaut" unicode="&#x2dd;" horiz-adv-x="1024" 
d="M167 1228l111 340h199l-177 -340h-133zM475 1228l177 340h206l-241 -340h-142z" />
    <glyph glyph-name="uni02DE" unicode="&#x2de;" horiz-adv-x="581" 
d="M0 431v136h347v-148q0 -79 40.5 -107t85.5 -28q28 0 52 6t36 11v-136q-17 -9 -54 -20t-78 -11q-55 0 -113.5 25.5t-98.5 85.5t-40 162v24h-177z" />
    <glyph glyph-name="uni02E0" unicode="&#x2e0;" horiz-adv-x="806" 
d="M403 440q-88 0 -143.5 51.5t-55.5 129.5q0 50 21.5 98.5t52.5 109.5l47 91l-278 531h154l202 -398l202 398h154l-279 -531l47 -91q32 -61 53 -109.5t21 -98.5q0 -78 -55.5 -129.5t-142.5 -51.5zM403 557q31 0 49 21.5t18 49.5q0 31 -18.5 69t-38.5 76l-10 21l-10 -21
q-21 -41 -39 -79t-18 -66t18 -49.5t49 -21.5z" />
    <glyph glyph-name="uni02E4" unicode="&#x2e4;" horiz-adv-x="753" 
d="M674 1425h-142q-5 62 -48.5 99t-115.5 37q-71 0 -114 -35t-43 -88q0 -49 25.5 -82t87.5 -70q71 -40 102.5 -89t31.5 -123l-1 -341h-142v335q0 50 -23.5 82t-90.5 69q-69 40 -107.5 94.5t-38.5 130.5q0 108 84.5 177.5t220.5 69.5q151 0 230 -75.5t84 -190.5z" />
    <glyph glyph-name="gravecomb" unicode="&#x300;" 
d="M-78 1228l-231 340h206l177 -340h-152z" />
    <glyph glyph-name="acutecomb" unicode="&#x301;" 
d="M78 1228h-152l177 340h206z" />
    <glyph glyph-name="uni0302" unicode="&#x302;" 
d="M101 1568l242 -340h-188l-147 227h-16l-147 -227h-188l242 340h202z" />
    <glyph glyph-name="tildecomb" unicode="&#x303;" 
d="M124 1235q-61 0 -96.5 22.5t-58.5 52.5t-45 52.5t-56 22.5q-36 0 -56 -34.5t-20 -119.5h-142q0 137 57.5 212.5t163.5 75.5q60 0 96.5 -23.5t61 -55t47.5 -55t56 -23.5q41 0 58.5 37.5t17.5 122.5h142q0 -136 -58.5 -211.5t-167.5 -75.5z" />
    <glyph glyph-name="uni0304" unicode="&#x304;" 
d="M327 1472v-136h-654v136h654z" />
    <glyph glyph-name="uni0306" unicode="&#x306;" 
d="M-349 1568h154q0 -94 46.5 -153t148.5 -59t148.5 59t46.5 153h154q0 -150 -89 -245t-260 -95t-260 95t-89 245z" />
    <glyph glyph-name="uni0307" unicode="&#x307;" 
d="M0 1286q-49 0 -84.5 35.5t-35.5 84.5q0 50 35.5 85t84.5 35q50 0 85 -35t35 -85q0 -49 -35 -84.5t-85 -35.5z" />
    <glyph glyph-name="uni0308" unicode="&#x308;" 
d="M-217 1286q-49 0 -84.5 35.5t-35.5 84.5q0 50 35.5 85t84.5 35q50 0 85 -35t35 -85q0 -49 -35 -84.5t-85 -35.5zM217 1286q-49 0 -84.5 35.5t-35.5 84.5q0 50 35.5 85t84.5 35q50 0 85 -35t35 -85q0 -49 -35 -84.5t-85 -35.5z" />
    <glyph glyph-name="hookabovecomb" unicode="&#x309;" 
d="M-144 1451v123q24 10 61 15.5t73 5.5q106 0 167 -49t61 -135q0 -69 -52 -130t-134 -88l-75 99q50 14 81 44.5t31 62.5t-28.5 53.5t-71.5 21.5q-69 0 -113 -23z" />
    <glyph glyph-name="uni030A" unicode="&#x30a;" 
d="M0 1228q-96 0 -164 66t-68 163t68 163t164 66t164 -66t68 -163t-68 -163t-164 -66zM0 1334q53 0 87.5 35.5t34.5 87.5q0 53 -34.5 88t-87.5 35q-52 0 -87 -35t-35 -88q0 -52 35 -87.5t87 -35.5z" />
    <glyph glyph-name="uni030B" unicode="&#x30b;" 
d="M-233 1228l111 340h199l-177 -340h-133zM75 1228l177 340h206l-241 -340h-142z" />
    <glyph glyph-name="uni030C" unicode="&#x30c;" 
d="M-101 1228l-242 340h188l147 -227h16l147 227h188l-242 -340h-202z" />
    <glyph glyph-name="uni030F" unicode="&#x30f;" 
d="M233 1228h-133l-177 340h199zM-75 1228h-142l-241 340h206z" />
    <glyph glyph-name="uni0311" unicode="&#x311;" 
d="M349 1228h-154q0 95 -46.5 153.5t-148.5 58.5t-148.5 -58.5t-46.5 -153.5h-154q0 150 89 245t260 95t260 -95t89 -245z" />
    <glyph glyph-name="uni0318" unicode="&#x318;" 
d="M63 -70v-414h-126v149h-184v116h184v149h126z" />
    <glyph glyph-name="uni0319" unicode="&#x319;" 
d="M-155 -484v414h126v-149h184v-116h-184v-149h-126z" />
    <glyph glyph-name="uni031A" unicode="&#x31a;" 
d="M287 1498v-350h-122v238h-452v112h574z" />
    <glyph glyph-name="uni031B" unicode="&#x31b;" 
d="M0 972v139q40 -43 103 -43q65 0 93 40.5t28 132.5v156h159v-204q0 -118 -68.5 -191.5t-178.5 -73.5q-81 0 -136 44z" />
    <glyph glyph-name="uni031C" unicode="&#x31c;" 
d="M120 -460q-96 0 -156 63.5t-60 151.5q0 89 60 152t156 63v-132q-47 0 -71.5 -24t-24.5 -59q0 -34 24.5 -58.5t71.5 -24.5v-132z" />
    <glyph glyph-name="uni031D" unicode="&#x31d;" 
d="M61 -102v-238h226v-112h-574v112h226v238h122z" />
    <glyph glyph-name="uni031E" unicode="&#x31e;" 
d="M-287 -102h574v-112h-226v-238h-122v238h-226v112z" />
    <glyph glyph-name="uni031F" unicode="&#x31f;" 
d="M63 -70v-149h184v-116h-184v-149h-126v149h-184v116h184v149h126z" />
    <glyph glyph-name="uni0320" unicode="&#x320;" 
d="M247 -335h-494v116h494v-116z" />
    <glyph glyph-name="dotbelowcomb" unicode="&#x323;" 
d="M0 -392q-49 0 -84.5 35.5t-35.5 84.5q0 50 35.5 85t84.5 35q50 0 85 -35t35 -85q0 -49 -35 -84.5t-85 -35.5z" />
    <glyph glyph-name="uni0324" unicode="&#x324;" 
d="M-217 -392q-49 0 -84.5 35.5t-35.5 84.5q0 50 35.5 85t84.5 35q50 0 85 -35t35 -85q0 -49 -35 -84.5t-85 -35.5zM217 -392q-49 0 -84.5 35.5t-35.5 84.5q0 50 35.5 85t84.5 35q50 0 85 -35t35 -85q0 -49 -35 -84.5t-85 -35.5z" />
    <glyph glyph-name="uni0325" unicode="&#x325;" 
d="M0 -501q-96 0 -164 66t-68 163t68 163t164 66t164 -66t68 -163t-68 -163t-164 -66zM0 -395q53 0 87.5 35.5t34.5 87.5q0 53 -34.5 88t-87.5 35q-52 0 -87 -35t-35 -88q0 -52 35 -87.5t87 -35.5z" />
    <glyph glyph-name="uni0326" unicode="&#x326;" 
d="M-46 -494h-127l82 377h182z" />
    <glyph glyph-name="uni0327" unicode="&#x327;" 
d="M-130 -240v90l97 172h131v-22l-78 -132q102 0 162.5 -43t60.5 -120q0 -70 -36.5 -112.5t-95.5 -62t-127 -19.5q-35 0 -71.5 5t-73.5 13v116q12 -3 44 -8t69 -5q47 0 87.5 14.5t40.5 52.5q0 36 -37.5 48.5t-111.5 12.5h-61z" />
    <glyph glyph-name="uni0328" unicode="&#x328;" 
d="M1 -435q-89 0 -160.5 47t-71.5 145q0 66 41 133t131 130l164 -20q-63 -38 -115 -87t-52 -110q0 -44 28.5 -69t78.5 -25q33 0 69 10v-135q-55 -19 -113 -19z" />
    <glyph glyph-name="uni0329" unicode="&#x329;" 
d="M61 -102v-350h-122v350h122z" />
    <glyph glyph-name="uni032A" unicode="&#x32a;" 
d="M-287 -452v350h574v-350h-122v238h-330v-238h-122z" />
    <glyph glyph-name="uni032C" unicode="&#x32c;" 
d="M-101 -457l-242 340h188l147 -227h16l147 227h188l-242 -340h-202z" />
    <glyph glyph-name="uni032D" unicode="&#x32d;" 
d="M101 -117l242 -340h-188l-147 227h-16l-147 -227h-188l242 340h202z" />
    <glyph glyph-name="uni032E" unicode="&#x32e;" 
d="M-349 -102h154q0 -94 46.5 -153t148.5 -59t148.5 59t46.5 153h154q0 -150 -89 -245t-260 -95t-260 95t-89 245z" />
    <glyph glyph-name="uni032F" unicode="&#x32f;" 
d="M349 -442h-154q0 95 -46.5 153.5t-148.5 58.5t-148.5 -58.5t-46.5 -153.5h-154q0 150 89 245t260 95t260 -95t89 -245z" />
    <glyph glyph-name="uni0330" unicode="&#x330;" 
d="M124 -413q-61 0 -96.5 22.5t-58.5 52.5t-45 52.5t-56 22.5q-36 0 -56 -34.5t-20 -119.5h-142q0 137 57.5 212.5t163.5 75.5q60 0 96.5 -23.5t61 -55t47.5 -55t56 -23.5q41 0 58.5 37.5t17.5 122.5h142q0 -136 -58.5 -211.5t-167.5 -75.5z" />
    <glyph glyph-name="uni0332" unicode="&#x332;" 
d="M327 -204v-136h-654v136h654z" />
    <glyph glyph-name="uni0332" unicode="&#x331;" 
d="M327 -204v-136h-654v136h654z" />
    <glyph glyph-name="uni0334" unicode="&#x334;" 
d="M264 887h129q1 -131 -61 -205.5t-165 -74.5q-60 0 -103 22t-77 50.5t-67 50t-73 21.5q-100 0 -100 -144h-129q-1 131 61 205.5t165 74.5q60 0 103 -21.5t77 -50t67 -50.5t73 -22q100 0 100 144z" />
    <glyph glyph-name="uni0339" unicode="&#x339;" 
d="M-96 -460v132q47 0 71.5 24.5t24.5 58.5q0 35 -24.5 59t-71.5 24v132q96 0 156 -63t60 -152q0 -88 -60 -151.5t-156 -63.5z" />
    <glyph glyph-name="uni033A" unicode="&#x33a;" 
d="M-287 -452v350h122v-238h330v238h122v-350h-574z" />
    <glyph glyph-name="uni033B" unicode="&#x33b;" 
d="M-211 -460v366h422v-366h-422zM-89 -348h178v142h-178v-142z" />
    <glyph glyph-name="uni033C" unicode="&#x33c;" 
d="M175 -98q87 0 137.5 -62.5t50.5 -175.5v-116h-114v107q0 59 -23 95t-70 36q-52 0 -76 -40.5t-24 -100.5v-97h-111v97q0 60 -24 100.5t-76 40.5q-47 0 -70 -36t-23 -95v-107h-114v116q0 113 50.5 175.5t137.5 62.5q83 0 124.5 -47t48.5 -99h3q8 52 49.5 99t123.5 47z" />
    <glyph glyph-name="uni033D" unicode="&#x33d;" 
d="M98 1142l-98 121l-98 -121h-142l160 193l-160 193h142l98 -119l98 119h142l-160 -193l160 -193h-142z" />
    <glyph glyph-name="uni035C" unicode="&#x35c;" 
d="M0 -322q187 0 332 32t240 82.5t131 105.5h170q-35 -94 -157 -171t-307 -122.5t-409 -46.5q-223 0 -410.5 45.5t-310 123t-152.5 171.5h170q28 -55 123.5 -105.5t244.5 -82.5t335 -32z" />
    <glyph glyph-name="uni035D" unicode="&#x35d;" 
d="M0 1348q187 0 332 32t240 82.5t131 105.5h170q-35 -94 -157 -171t-307 -122.5t-409 -46.5q-223 0 -410.5 45.5t-310 123t-152.5 171.5h170q28 -55 123.5 -105.5t244.5 -82.5t335 -32z" />
    <glyph glyph-name="uni035E" unicode="&#x35e;" 
d="M822 1385v-121h-1644v121h1644z" />
    <glyph glyph-name="uni035F" unicode="&#x35f;" 
d="M822 -204v-121h-1644v121h1644z" />
    <glyph glyph-name="uni0361" unicode="&#x361;" 
d="M0 1448q-186 0 -331.5 -32t-240.5 -82t-131 -106h-170q35 95 157 171.5t307.5 122.5t408.5 46q224 0 411 -45.5t309.5 -122.5t152.5 -172h-170q-28 56 -123.5 106t-244 82t-335.5 32z" />
    <glyph glyph-name="uni037E" unicode="&#x37e;" horiz-adv-x="608" 
d="M304 764q-53 0 -91.5 38.5t-38.5 91.5q0 54 38.5 92t91.5 38q54 0 92 -38t38 -92q0 -53 -38 -91.5t-92 -38.5zM271 -367h-129l95 569h191z" />
    <glyph glyph-name="tonos" unicode="&#x384;" horiz-adv-x="1024" 
d="M518 1228h-146l88 340h193z" />
    <glyph glyph-name="dieresistonos" unicode="&#x385;" horiz-adv-x="1024" 
d="M555 1228h-144l49 340h191zM182 1228q-50 0 -85.5 35.5t-35.5 85.5t35.5 85.5t85.5 35.5t85.5 -35.5t35.5 -85.5t-35.5 -85.5t-85.5 -35.5zM842 1228q-50 0 -85.5 35.5t-35.5 85.5t35.5 85.5t85.5 35.5t85.5 -35.5t35.5 -85.5t-35.5 -85.5t-85.5 -35.5z" />
    <glyph glyph-name="Alphatonos" unicode="&#x386;" horiz-adv-x="1380" 
d="M1122 0l-145 413h-574l-145 -413h-189l532 1443h178l532 -1443h-189zM682 1210l-226 -644h468l-226 644h-16zM255 1103h-146l88 340h193z" />
    <glyph glyph-name="anoteleia" unicode="&#x387;" horiz-adv-x="608" 
d="M304 818q-53 0 -91.5 38.5t-38.5 91.5q0 54 38.5 92t91.5 38q54 0 92 -38t38 -92q0 -53 -38 -91.5t-92 -38.5z" />
    <glyph glyph-name="Epsilontonos" unicode="&#x388;" horiz-adv-x="1601" 
d="M246 1103h-146l88 340h193zM1459 162v-162h-894v1443h894v-162h-714v-463h677v-160h-677v-496h714z" />
    <glyph glyph-name="Etatonos" unicode="&#x389;" horiz-adv-x="1901" 
d="M246 1103h-146l88 340h193zM1717 0h-180v657h-792v-657h-180v1443h180v-624h792v624h180v-1443z" />
    <glyph glyph-name="Iotatonos" unicode="&#x38a;" horiz-adv-x="929" 
d="M246 1103h-146l88 340h193zM745 0h-180v1443h180v-1443z" />
    <glyph glyph-name="Omicrontonos" unicode="&#x38c;" horiz-adv-x="1825" 
d="M246 1103h-146l88 340h193zM1035 1477q205 0 353.5 -92.5t228.5 -261.5t80 -401q0 -230 -79.5 -400t-228 -263t-354.5 -93q-207 0 -355 92.5t-227.5 262.5t-79.5 401q0 232 80.5 401.5t229 261.5t352.5 92zM1035 1311q-147 0 -254 -72t-165 -204t-58 -313
q0 -179 57 -311.5t163.5 -205.5t256.5 -73q148 0 255 73t164.5 205.5t57.5 311.5q0 181 -58 313t-164.5 204t-254.5 72z" />
    <glyph glyph-name="Upsilontonos" unicode="&#x38e;" horiz-adv-x="1725" 
d="M246 1103h-146l88 340h193zM1143 0h-180v621l-512 822h205l389 -641h16l389 641h205l-512 -822v-621z" />
    <glyph glyph-name="Omegatonos" unicode="&#x38f;" horiz-adv-x="1842" 
d="M246 1103h-146l88 340h193zM1522 793q0 241 -127 379.5t-348 138.5t-348 -138.5t-127 -379.5q0 -193 83 -336.5t258 -252.5v-204h-526v162h311v16q-147 94 -229 257t-82 362q0 203 83 356t231.5 238.5t345.5 85.5t345.5 -85.5t231.5 -238.5t83 -356q0 -199 -82 -362
t-229 -257v-16h311v-162h-526v204q175 109 258 252.5t83 336.5z" />
    <glyph glyph-name="iotadieresistonos" unicode="&#x390;" horiz-adv-x="614" 
d="M162 1078h172v-754q0 -93 36.5 -137t121.5 -44q21 0 62 4v-145q-25 -5 -49.5 -7.5t-44.5 -2.5q-163 0 -230.5 70.5t-67.5 219.5v796zM319 1228h-144l49 340h191zM-54 1228q-50 0 -85.5 35.5t-35.5 85.5t35.5 85.5t85.5 35.5t85.5 -35.5t35.5 -85.5t-35.5 -85.5
t-85.5 -35.5zM606 1228q-50 0 -85.5 35.5t-35.5 85.5t35.5 85.5t85.5 35.5t85.5 -35.5t35.5 -85.5t-35.5 -85.5t-85.5 -35.5z" />
    <glyph glyph-name="Alpha" unicode="&#x391;" horiz-adv-x="1380" 
d="M1122 0l-145 413h-574l-145 -413h-189l532 1443h178l532 -1443h-189zM682 1210l-226 -644h468l-226 644h-16z" />
    <glyph glyph-name="Beta" unicode="&#x392;" horiz-adv-x="1346" 
d="M747 0h-563v1443h552q199 0 313 -97t114 -263q0 -75 -33.5 -141.5t-89.5 -111.5t-126 -58v-16q148 -19 235 -113.5t87 -237.5q0 -190 -129.5 -297.5t-359.5 -107.5zM364 1284v-463h288q329 0 329 231q0 110 -74.5 171t-208.5 61h-334zM364 159h356q331 0 331 255
q0 252 -348 252h-339v-507z" />
    <glyph glyph-name="Gamma" unicode="&#x393;" horiz-adv-x="1152" 
d="M364 0h-180v1443h856v-162h-676v-1281z" />
    <glyph glyph-name="Delta" unicode="&#x2206;" horiz-adv-x="1394" 
d="M1291 0h-1188v127l505 1316h178l505 -1316v-127zM307 178v-16h780v16l-382 1042h-16z" />
    <glyph glyph-name="Delta" unicode="&#x394;" horiz-adv-x="1394" 
d="M1291 0h-1188v127l505 1316h178l505 -1316v-127zM307 178v-16h780v16l-382 1042h-16z" />
    <glyph glyph-name="Epsilon" unicode="&#x395;" horiz-adv-x="1220" 
d="M1078 162v-162h-894v1443h894v-162h-714v-463h677v-160h-677v-496h714z" />
    <glyph glyph-name="Zeta" unicode="&#x396;" horiz-adv-x="1355" 
d="M144 0v128l817 1137v16h-789v162h1022v-128l-813 -1137v-16h830v-162h-1067z" />
    <glyph glyph-name="Eta" unicode="&#x397;" horiz-adv-x="1520" 
d="M1336 0h-180v657h-792v-657h-180v1443h180v-624h792v624h180v-1443z" />
    <glyph glyph-name="Theta" unicode="&#x398;" horiz-adv-x="1599" 
d="M801 1477q205 0 355.5 -88t232.5 -256.5t82 -410.5q0 -241 -81.5 -409.5t-232 -257.5t-356.5 -89q-207 0 -358 88.5t-233 257.5t-82 410q0 242 83.5 410.5t234.5 256.5t355 88zM801 1311q-220 0 -354 -151.5t-134 -437.5q0 -283 131.5 -436.5t356.5 -153.5
q222 0 353.5 153.5t131.5 436.5q0 286 -132 437.5t-353 151.5zM1102 638h-605v162h605v-162z" />
    <glyph glyph-name="Iota" unicode="&#x399;" horiz-adv-x="548" 
d="M364 0h-180v1443h180v-1443z" />
    <glyph glyph-name="Kappa" unicode="&#x39a;" horiz-adv-x="1349" 
d="M364 0h-180v1443h180v-701h16l632 701h226l-577 -623l630 -820h-233l-521 695l-173 -191v-504z" />
    <glyph glyph-name="Lambda" unicode="&#x39b;" horiz-adv-x="1368" 
d="M1096 0l-404 1200h-16l-404 -1200h-189l512 1443h178l512 -1443h-189z" />
    <glyph glyph-name="Mu" unicode="&#x39c;" horiz-adv-x="1790" 
d="M1606 0h-168v1102h-12l-455 -1102h-152l-455 1102h-12v-1102h-168v1443h209l494 -1204h16l494 1204h209v-1443z" />
    <glyph glyph-name="Nu" unicode="&#x39d;" horiz-adv-x="1520" 
d="M362 0h-178v1443h175l783 -1123h16v1123h178v-1443h-175l-783 1119h-16v-1119z" />
    <glyph glyph-name="Xi" unicode="&#x39e;" horiz-adv-x="1343" 
d="M142 1443h1059v-167h-1059v167zM1114 653h-885v165h885v-165zM142 167h1059v-167h-1059v167z" />
    <glyph glyph-name="Omicron" unicode="&#x39f;" horiz-adv-x="1580" 
d="M790 1477q205 0 353.5 -92.5t228.5 -261.5t80 -401q0 -230 -79.5 -400t-228 -263t-354.5 -93q-207 0 -355 92.5t-227.5 262.5t-79.5 401q0 232 80.5 401.5t229 261.5t352.5 92zM790 1311q-147 0 -254 -72t-165 -204t-58 -313q0 -179 57 -311.5t163.5 -205.5t256.5 -73
q148 0 255 73t164.5 205.5t57.5 311.5q0 181 -58 313t-164.5 204t-254.5 72z" />
    <glyph glyph-name="Pi" unicode="&#x3a0;" horiz-adv-x="1500" 
d="M1316 0h-180v1281h-772v-1281h-180v1443h1132v-1443z" />
    <glyph glyph-name="Rho" unicode="&#x3a1;" horiz-adv-x="1301" 
d="M184 1443h545q137 0 241 -59.5t162.5 -164.5t58.5 -243q0 -135 -59.5 -239t-164 -163t-240.5 -59h-363v-515h-180v1443zM364 1283v-608h318q154 0 239 79t85 222q0 149 -83.5 228t-240.5 79h-318z" />
    <glyph glyph-name="Sigma" unicode="&#x3a3;" horiz-adv-x="1335" 
d="M372 178v-16h819v-162h-1047v132l419 593l-402 566v152h1012v-162h-779v-16l357 -511v-32z" />
    <glyph glyph-name="Tau" unicode="&#x3a4;" horiz-adv-x="1298" 
d="M739 0h-180v1281h-465v162h1110v-162h-465v-1281z" />
    <glyph glyph-name="Upsilon" unicode="&#x3a5;" horiz-adv-x="1344" 
d="M762 0h-180v621l-512 822h205l389 -641h16l389 641h205l-512 -822v-621z" />
    <glyph glyph-name="Phi" unicode="&#x3a6;" horiz-adv-x="1716" 
d="M948 -58h-180v143q-194 9 -340.5 88t-228 217.5t-81.5 327.5t81.5 328t228 217.5t340.5 87.5v146h180v-146q194 -9 340.5 -87.5t228 -217.5t81.5 -328t-81.5 -327.5t-228 -217.5t-340.5 -88v-143zM1414 718q0 224 -129 344.5t-337 127.5v-944q208 8 337 128.5t129 343.5z
M302 718q0 -223 129 -343.5t337 -128.5v944q-208 -7 -337 -127.5t-129 -344.5z" />
    <glyph glyph-name="Chi" unicode="&#x3a7;" horiz-adv-x="1390" 
d="M90 0l494 726l-488 717h217l380 -574h16l386 574h205l-500 -725l489 -718h-216l-378 569h-16l-385 -569h-204z" />
    <glyph glyph-name="Psi" unicode="&#x3a8;" horiz-adv-x="1676" 
d="M928 0h-180v339q-173 1 -303.5 70.5t-203 195.5t-72.5 293v545h180v-539q0 -187 103.5 -290.5t295.5 -108.5v938h180v-938q192 5 295.5 108.5t103.5 290.5v539h180v-545q0 -167 -72.5 -293t-202.5 -196t-304 -70v-339z" />
    <glyph glyph-name="Omega" unicode="&#x2126;" horiz-adv-x="1590" 
d="M1270 793q0 241 -127 379.5t-348 138.5t-348 -138.5t-127 -379.5q0 -193 83 -336.5t258 -252.5v-204h-526v162h311v16q-147 94 -229 257t-82 362q0 203 83 356t231.5 238.5t345.5 85.5t345.5 -85.5t231.5 -238.5t83 -356q0 -199 -82 -362t-229 -257v-16h311v-162h-526
v204q175 109 258 252.5t83 336.5z" />
    <glyph glyph-name="Omega" unicode="&#x3a9;" horiz-adv-x="1590" 
d="M1270 793q0 241 -127 379.5t-348 138.5t-348 -138.5t-127 -379.5q0 -193 83 -336.5t258 -252.5v-204h-526v162h311v16q-147 94 -229 257t-82 362q0 203 83 356t231.5 238.5t345.5 85.5t345.5 -85.5t231.5 -238.5t83 -356q0 -199 -82 -362t-229 -257v-16h311v-162h-526
v204q175 109 258 252.5t83 336.5z" />
    <glyph glyph-name="Iotadieresis" unicode="&#x3aa;" horiz-adv-x="548" 
d="M364 0h-180v1443h180v-1443zM57 1631q-49 0 -84.5 35.5t-35.5 84.5q0 50 35.5 85t84.5 35q50 0 85 -35t35 -85q0 -49 -35 -84.5t-85 -35.5zM491 1631q-49 0 -84.5 35.5t-35.5 84.5q0 50 35.5 85t84.5 35q50 0 85 -35t35 -85q0 -49 -35 -84.5t-85 -35.5z" />
    <glyph glyph-name="Upsilondieresis" unicode="&#x3ab;" horiz-adv-x="1344" 
d="M762 0h-180v621l-512 822h205l389 -641h16l389 641h205l-512 -822v-621zM455 1631q-49 0 -84.5 35.5t-35.5 84.5q0 50 35.5 85t84.5 35q50 0 85 -35t35 -85q0 -49 -35 -84.5t-85 -35.5zM889 1631q-49 0 -84.5 35.5t-35.5 84.5q0 50 35.5 85t84.5 35q50 0 85 -35t35 -85
q0 -49 -35 -84.5t-85 -35.5z" />
    <glyph glyph-name="alphatonos" unicode="&#x3ac;" horiz-adv-x="1265" 
d="M547 -19q-135 0 -236 68.5t-157 194t-56 295.5t56 295t157.5 194t235.5 69q243 0 327 -219h16v200h166v-809q0 -74 22 -101t68 -27q26 0 49 4v-145q-36 -10 -87 -10q-95 0 -151 47.5t-66 142.5l-1 10h-16q-88 -209 -327 -209zM560 136q151 0 239 110t88 293
q0 180 -82 291.5t-222 111.5q-142 0 -224.5 -107t-82.5 -296q0 -185 77.5 -294t206.5 -109zM675 1228h-146l88 340h193z" />
    <glyph glyph-name="epsilontonos" unicode="&#x3ad;" horiz-adv-x="1057" 
d="M552 -19q-209 0 -326.5 88t-117.5 222q0 178 186 240v16q-166 67 -166 235q0 97 54 167.5t150 109t220 38.5q197 0 312.5 -81.5t139.5 -236.5h-174q-21 79 -93 121t-185 42q-114 0 -185.5 -43.5t-71.5 -121.5q0 -68 60 -112t179 -44h153v-154h-153q-124 0 -186 -45.5
t-62 -118.5q0 -76 69 -121t197 -45q115 0 196 50.5t103 138.5h174q-17 -100 -84 -178t-168 -122.5t-221 -44.5zM635 1228h-146l88 340h193z" />
    <glyph glyph-name="etatonos" unicode="&#x3ae;" horiz-adv-x="1257" 
d="M1105 -360h-172v1016q0 286 -248 286q-131 0 -205 -83t-74 -221v-638h-172v809q0 74 -23.5 101t-76.5 27q-26 0 -49 -4v145q36 10 92 10q89 0 146.5 -41t70.5 -121l3 -18h16q40 87 124.5 138t196.5 51q176 0 273.5 -103.5t97.5 -295.5v-1058zM755 1228h-146l88 340h193z
" />
    <glyph glyph-name="iotatonos" unicode="&#x3af;" horiz-adv-x="614" 
d="M162 1078h172v-754q0 -93 36.5 -137t121.5 -44q21 0 62 4v-145q-25 -5 -49.5 -7.5t-44.5 -2.5q-163 0 -230.5 70.5t-67.5 219.5v796zM326 1228h-146l88 340h193z" />
    <glyph glyph-name="upsilondieresistonos" unicode="&#x3b0;" horiz-adv-x="1135" 
d="M574 -19q-192 0 -309 107.5t-117 326.5v663h172v-654q0 -145 66 -215.5t183 -70.5q121 0 195.5 101t74.5 294q0 121 -8 205.5t-30 162t-64 177.5h178q46 -94 74 -237.5t28 -283.5q0 -274 -115.5 -425t-327.5 -151zM618 1228h-144l49 340h191zM245 1228q-50 0 -85.5 35.5
t-35.5 85.5t35.5 85.5t85.5 35.5t85.5 -35.5t35.5 -85.5t-35.5 -85.5t-85.5 -35.5zM905 1228q-50 0 -85.5 35.5t-35.5 85.5t35.5 85.5t85.5 35.5t85.5 -35.5t35.5 -85.5t-35.5 -85.5t-85.5 -35.5z" />
    <glyph glyph-name="alpha" unicode="&#x3b1;" horiz-adv-x="1265" 
d="M547 -19q-135 0 -236 68.5t-157 194t-56 295.5t56 295t157.5 194t235.5 69q243 0 327 -219h16v200h166v-809q0 -74 22 -101t68 -27q26 0 49 4v-145q-36 -10 -87 -10q-95 0 -151 47.5t-66 142.5l-1 10h-16q-88 -209 -327 -209zM560 136q151 0 239 110t88 293
q0 180 -82 291.5t-222 111.5q-142 0 -224.5 -107t-82.5 -296q0 -185 77.5 -294t206.5 -109z" />
    <glyph glyph-name="beta" unicode="&#x3b2;" horiz-adv-x="1238" 
d="M162 1029q0 236 116.5 366t326.5 130q124 0 220 -46.5t150.5 -132.5t54.5 -206q0 -100 -54.5 -181.5t-149.5 -122.5v-16q304 -76 304 -384q0 -133 -58 -236t-159.5 -161t-231.5 -58q-121 0 -205.5 49t-125.5 132h-16v-522h-172v1389zM502 735v154h89q126 0 196 61.5
t70 178.5q0 110 -68 175.5t-179 65.5q-276 0 -276 -359v-503q0 -172 94 -272t244 -100q78 0 141.5 38.5t101 105t37.5 150.5q0 151 -93 228t-269 77h-88z" />
    <glyph glyph-name="gamma" unicode="&#x3b3;" horiz-adv-x="1115" 
d="M600 -350h-172v329l-356 1099h184l274 -921h16q146 203 209.5 380t63.5 343q0 62 -4 107.5t-14 90.5h172q8 -42 13.5 -97.5t5.5 -100.5q0 -193 -92.5 -414.5t-299.5 -493.5v-322z" />
    <glyph glyph-name="delta" unicode="&#x3b4;" horiz-adv-x="1174" 
d="M587 -19q-151 0 -262 65.5t-172 181.5t-61 267q0 133 52 236.5t139.5 170.5t194.5 88v19q-110 60 -155.5 117.5t-45.5 139.5q0 81 48 139t129.5 89t181.5 31q107 0 191 -21.5t142 -60.5v-152q-81 41 -163.5 62t-177.5 21q-179 0 -179 -114q0 -31 15.5 -57t61.5 -56
t135 -73q212 -102 313.5 -240t101.5 -329q0 -157 -64.5 -275t-175 -183.5t-249.5 -65.5zM587 132q137 0 224.5 100.5t87.5 272.5q0 112 -42 197t-113.5 133t-162.5 48q-85 0 -156 -44.5t-113.5 -129t-42.5 -204.5q0 -172 89.5 -272.5t228.5 -100.5z" />
    </font>
</defs>
</svg>
